<?xml version="1.0" standalone="no"?>
<!DOCTYPE svg PUBLIC "-//W3C//DTD SVG 1.1//EN" "http://www.w3.org/Graphics/SVG/1.1/DTD/svg11.dtd" >
<svg xmlns="http://www.w3.org/2000/svg" xmlns:xlink="http://www.w3.org/1999/xlink" version="1.1">
<metadata>
Created by FontForge 20190801 at Wed Feb 22 14:51:30 2023
 By root
Copyright (c) 2019 by Marcelo Moya Ochoa. All rights reserved.
</metadata>
<defs>
<font id="Versus-Ultra" horiz-adv-x="0" >
  <font-face 
    font-family="Versus Ultra(RUS BY LYAJKA)"
    font-weight="900"
    font-stretch="normal"
    units-per-em="1000"
    panose-1="0 0 10 0 0 0 0 0 0 0"
    ascent="800"
    descent="-200"
    x-height="700"
    cap-height="700"
    bbox="-1010 -320 1770 1077"
    underline-thickness="50"
    underline-position="-100"
    unicode-range="U+0020-FB02"
  />
<missing-glyph horiz-adv-x="530" 
d="M480 730v-730h-430v730h430zM265 408l150 287h-300zM90 657v-584l153 292zM440 73v584l-152 -292zM115 35h300l-150 287z" />
    <glyph glyph-name="uniFB01" unicode="fi" horiz-adv-x="1163" 
d="M737 516h-387v-109h359v-184h-359v-223h-300v700h687v-184zM1113 700v-700h-300v700h300z" />
    <glyph glyph-name="uniFB02" unicode="fl" horiz-adv-x="1486" 
d="M737 516h-387v-109h359v-184h-359v-223h-300v700h687v-184zM1476 204v-204h-663v700h300v-496h363z" />
    <glyph glyph-name=".notdef" horiz-adv-x="530" 
d="M480 730v-730h-430v730h430zM265 408l150 287h-300zM90 657v-584l153 292zM440 73v584l-152 -292zM115 35h300l-150 287z" />
    <glyph glyph-name="A" unicode="A" horiz-adv-x="895" 
d="M567 94h-237l-31 -94h-299l296 700h303l296 -700h-299zM515 265l-31 100q-9 27 -17 55q-9 33 -14 56h-3q-12 -54 -31 -111l-33 -100h129z" />
    <glyph glyph-name="Aacute" unicode="&#xc1;" horiz-adv-x="895" 
d="M633 756h-370v128l370 86v-214zM567 94h-237l-31 -94h-299l296 700h303l296 -700h-299zM515 265l-31 100q-9 27 -17 55q-9 33 -14 56h-3q-12 -54 -31 -111l-33 -100h129z" />
    <glyph glyph-name="Abreve" unicode="&#x102;" horiz-adv-x="895" 
d="M214 929v21h169v-16q0 -21 16 -34q18 -15 49 -15q65 0 65 49v16h169v-21q0 -183 -233 -183q-235 0 -235 183zM567 94h-237l-31 -94h-299l296 700h303l296 -700h-299zM515 265l-31 100q-9 27 -17 55q-9 33 -14 56h-3q-12 -54 -31 -111l-33 -100h129z" />
    <glyph glyph-name="Acircumflex" unicode="&#xc2;" horiz-adv-x="895" 
d="M385 756h-200l128 194h270l128 -194h-200l-63 66zM567 94h-237l-31 -94h-299l296 700h303l296 -700h-299zM515 265l-31 100q-9 27 -17 55q-9 33 -14 56h-3q-12 -54 -31 -111l-33 -100h129z" />
    <glyph glyph-name="Adieresis" unicode="&#xc4;" horiz-adv-x="895" 
d="M420 756h-251v194h251v-194zM726 756h-251v194h251v-194zM567 94h-237l-31 -94h-299l296 700h303l296 -700h-299zM515 265l-31 100q-9 27 -17 55q-9 33 -14 56h-3q-12 -54 -31 -111l-33 -100h129z" />
    <glyph glyph-name="Agrave" unicode="&#xc0;" horiz-adv-x="895" 
d="M633 756h-370v214l370 -86v-128zM567 94h-237l-31 -94h-299l296 700h303l296 -700h-299zM515 265l-31 100q-9 27 -17 55q-9 33 -14 56h-3q-12 -54 -31 -111l-33 -100h129z" />
    <glyph glyph-name="Amacron" unicode="&#x100;" horiz-adv-x="895" 
d="M686 775h-476v161h476v-161zM567 94h-237l-31 -94h-299l296 700h303l296 -700h-299zM515 265l-31 100q-9 27 -17 55q-9 33 -14 56h-3q-12 -54 -31 -111l-33 -100h129z" />
    <glyph glyph-name="Aogonek" unicode="&#x104;" horiz-adv-x="895" 
d="M805 -99q-4 -31 11 -52q15 -23 42 -23h12v-126h-81q-67 0 -109 31q-39 28 -50 76q-10 46 9 98q20 53 66 95h-109l-29 94h-237l-31 -94h-299l296 700h303l296 -700q-83 -22 -90 -99zM515 265l-31 100q-9 27 -17 55q-9 33 -14 56h-3q-12 -54 -31 -111l-33 -100h129z" />
    <glyph glyph-name="Aring" unicode="&#xc5;" horiz-adv-x="895" 
d="M567 94h-237l-31 -94h-299l288 681q-27 44 -27 106q0 82 47 129q49 50 140 50t140 -50q47 -47 47 -129q0 -63 -27 -107l287 -680h-299zM392 787q0 -55 56 -55q54 0 54 55q0 52 -54 52q-56 0 -56 -52zM515 265l-31 100q-9 27 -17 55q-9 33 -14 56h-3q-12 -54 -31 -111
l-33 -100h129z" />
    <glyph glyph-name="Atilde" unicode="&#xc3;" horiz-adv-x="895" 
d="M505 764l-29 7l-28 7q-75 20 -113 20q-78 0 -135 -40v165q64 40 135 40q38 0 113 -20q38 -10 57 -14q31 -6 56 -6q81 0 135 40v-165q-60 -40 -135 -40q-25 0 -56 6zM567 94h-237l-31 -94h-299l296 700h303l296 -700h-299zM515 265l-31 100q-9 27 -17 55q-9 33 -14 56h-3
q-12 -54 -31 -111l-33 -100h129z" />
    <glyph glyph-name="AE" unicode="&#xc6;" horiz-adv-x="1126" 
d="M1098 174v-174h-502l-29 94h-237l-31 -94h-299l296 700h796v-174h-419l37 -89h354v-174h-280l37 -89h277zM515 265l-31 100q-9 27 -17 55q-9 33 -14 56h-3q-12 -54 -31 -111l-33 -100h129z" />
    <glyph glyph-name="AEacute" unicode="&#x1fc;" horiz-adv-x="1126" 
d="M859 756h-370v128l370 86v-214zM1098 174v-174h-502l-29 94h-237l-31 -94h-299l296 700h796v-174h-419l37 -89h354v-174h-280l37 -89h277zM515 265l-31 100q-9 27 -17 55q-9 33 -14 56h-3q-12 -54 -31 -111l-33 -100h129z" />
    <glyph glyph-name="B" unicode="B" horiz-adv-x="899" 
d="M881 194v-3q0 -191 -282 -191h-549v700h551q248 0 248 -174v-3q0 -117 -101 -152q133 -39 133 -177zM340 537v-114h170q59 0 59 56v3q0 55 -59 55h-170zM589 225q0 55 -59 55h-190v-114h190q59 0 59 56v3z" />
    <glyph glyph-name="C" unicode="C" horiz-adv-x="901" 
d="M130 66q-100 84 -100 279v5q0 199 100 285q99 86 326 85q214 -1 313 -74q102 -76 102 -245v-5h-293v5q0 106 -122 104q-68 -1 -96 -35q-28 -35 -28 -119v-5q0 -83 28 -117q29 -35 96 -34q121 2 121 100v5h294v-5q0 -167 -102 -243q-100 -74 -313 -72q-228 2 -326 86z" />
    <glyph glyph-name="Cacute" unicode="&#x106;" horiz-adv-x="901" 
d="M636 756h-370v128l370 86v-214zM130 66q-100 84 -100 279v5q0 199 100 285q99 86 326 85q214 -1 313 -74q102 -76 102 -245v-5h-293v5q0 106 -122 104q-68 -1 -96 -35q-28 -35 -28 -119v-5q0 -83 28 -117q29 -35 96 -34q121 2 121 100v5h294v-5q0 -167 -102 -243
q-100 -74 -313 -72q-228 2 -326 86z" />
    <glyph glyph-name="Ccaron" unicode="&#x10c;" horiz-adv-x="901" 
d="M316 756l-128 194h200l63 -66l63 66h200l-128 -194h-270zM578 396v5q0 106 -122 104q-68 -1 -96 -35q-28 -35 -28 -119v-5q0 -83 28 -117q29 -35 96 -34q121 2 121 100v5h294v-5q0 -167 -102 -243q-100 -74 -313 -72q-228 2 -326 86q-100 84 -100 279v5q0 199 100 285
q99 86 326 85q214 -1 313 -74q102 -76 102 -245v-5h-293z" />
    <glyph glyph-name="Ccedilla" unicode="&#xc7;" horiz-adv-x="901" 
d="M578 396v5q0 106 -122 104q-68 -1 -96 -35q-28 -35 -28 -119v-5q0 -83 28 -117q29 -35 96 -34q121 2 121 100v5h294v-5q0 -159 -92 -235q-90 -75 -282 -80l-25 -35q128 0 128 -122q0 -123 -154 -123h-144v94h75q36 0 36 29q0 28 -36 28h-65v75l39 60q-170 19 -245 103
q-76 84 -76 256v5q0 199 100 285q99 86 326 85q214 -1 313 -74q102 -76 102 -245v-5h-293z" />
    <glyph glyph-name="Cdotaccent" unicode="&#x10a;" horiz-adv-x="901" 
d="M319 771q-37 27 -37 84q0 111 169 111t169 -111q0 -57 -36 -84q-41 -30 -133 -30t-132 30zM130 66q-100 84 -100 279v5q0 199 100 285q99 86 326 85q214 -1 313 -74q102 -76 102 -245v-5h-293v5q0 106 -122 104q-68 -1 -96 -35q-28 -35 -28 -119v-5q0 -83 28 -117
q29 -35 96 -34q121 2 121 100v5h294v-5q0 -167 -102 -243q-100 -74 -313 -72q-228 2 -326 86z" />
    <glyph glyph-name="D" unicode="D" horiz-adv-x="905" 
d="M432 700q238 0 341 -82q102 -82 102 -268v-5q0 -182 -102 -262q-104 -83 -341 -83h-382v700h382zM573 351q0 72 -31 105q-34 34 -110 34h-93v-278h93q76 0 110 33q31 32 31 101v5z" />
    <glyph glyph-name="Eth" unicode="&#xd0;" horiz-adv-x="869" 
d="M432 700q238 0 341 -82q102 -82 102 -268v-5q0 -182 -102 -262q-104 -83 -341 -83h-382v263h-60v175h60v262h382zM573 351q0 72 -31 105q-34 34 -110 34h-93v-52h104v-175h-104v-51h93q76 0 110 33q31 32 31 101v5z" />
    <glyph glyph-name="Dcaron" unicode="&#x10e;" horiz-adv-x="905" 
d="M299 756l-128 194h200l63 -66l63 66h200l-128 -194h-270zM432 700q238 0 341 -82q102 -82 102 -268v-5q0 -182 -102 -262q-104 -83 -341 -83h-382v700h382zM573 351q0 72 -31 105q-34 34 -110 34h-93v-278h93q76 0 110 33q31 32 31 101v5z" />
    <glyph glyph-name="Dcroat" unicode="&#x110;" horiz-adv-x="869" 
d="M432 700q238 0 341 -82q102 -82 102 -268v-5q0 -182 -102 -262q-104 -83 -341 -83h-382v263h-60v175h60v262h382zM573 351q0 72 -31 105q-34 34 -110 34h-93v-52h104v-175h-104v-51h93q76 0 110 33q31 32 31 101v5z" />
    <glyph glyph-name="E" unicode="E" horiz-adv-x="781" 
d="M753 174v-174h-703v700h697v-174h-397v-89h369v-174h-369v-89h403z" />
    <glyph glyph-name="Eacute" unicode="&#xc9;" horiz-adv-x="781" 
d="M581 756h-370v128l370 86v-214zM753 174v-174h-703v700h697v-174h-397v-89h369v-174h-369v-89h403z" />
    <glyph glyph-name="Ecaron" unicode="&#x11a;" horiz-adv-x="781" 
d="M261 756l-128 194h200l63 -66l63 66h200l-128 -194h-270zM753 174v-174h-703v700h697v-174h-397v-89h369v-174h-369v-89h403z" />
    <glyph glyph-name="Ecircumflex" unicode="&#xca;" horiz-adv-x="781" 
d="M333 756h-200l128 194h270l128 -194h-200l-63 66zM753 174v-174h-703v700h697v-174h-397v-89h369v-174h-369v-89h403z" />
    <glyph glyph-name="Edieresis" unicode="&#xcb;" horiz-adv-x="781" 
d="M368 756h-251v194h251v-194zM674 756h-251v194h251v-194zM753 174v-174h-703v700h697v-174h-397v-89h369v-174h-369v-89h403z" />
    <glyph glyph-name="Edotaccent" unicode="&#x116;" horiz-adv-x="781" 
d="M264 771q-37 27 -37 84q0 111 169 111t169 -111q0 -57 -36 -84q-41 -30 -133 -30t-132 30zM753 174v-174h-703v700h697v-174h-397v-89h369v-174h-369v-89h403z" />
    <glyph glyph-name="Egrave" unicode="&#xc8;" horiz-adv-x="781" 
d="M581 756h-370v214l370 -86v-128zM753 174v-174h-703v700h697v-174h-397v-89h369v-174h-369v-89h403z" />
    <glyph glyph-name="Emacron" unicode="&#x112;" horiz-adv-x="781" 
d="M634 775h-476v161h476v-161zM753 174v-174h-703v700h697v-174h-397v-89h369v-174h-369v-89h403z" />
    <glyph glyph-name="Eogonek" unicode="&#x118;" horiz-adv-x="781" 
d="M753 0q-83 -22 -90 -99q-4 -31 11 -52q15 -23 42 -23h12v-126h-81q-67 0 -109 31q-39 28 -50 76q-10 46 9 98q20 53 66 95h-513v700h697v-174h-397v-89h369v-174h-369v-89h403v-174z" />
    <glyph glyph-name="F" unicode="F" horiz-adv-x="763" 
d="M350 516v-109h359v-184h-359v-223h-300v700h687v-184h-387z" />
    <glyph glyph-name="G" unicode="G" horiz-adv-x="901" 
d="M578 426v5q0 32 -29 53q-31 22 -85 21q-69 -1 -100 -35q-32 -37 -32 -119v-5q0 -90 31 -126t106 -35q95 1 118 49h-116v126h400v-65q0 -167 -102 -243q-100 -74 -313 -72q-228 2 -326 86q-100 84 -100 279v5q0 199 100 285q99 86 326 85q212 -1 313 -70q102 -71 102 -219
v-5h-293z" />
    <glyph glyph-name="Gbreve" unicode="&#x11e;" horiz-adv-x="901" 
d="M217 929v21h169v-16q0 -21 16 -34q18 -15 49 -15q65 0 65 49v16h169v-21q0 -183 -233 -183q-235 0 -235 183zM578 426v5q0 32 -29 53q-31 22 -85 21q-69 -1 -100 -35q-32 -37 -32 -119v-5q0 -90 31 -126t106 -35q95 1 118 49h-116v126h400v-65q0 -167 -102 -243
q-100 -74 -313 -72q-228 2 -326 86q-100 84 -100 279v5q0 199 100 285q99 86 326 85q212 -1 313 -70q102 -71 102 -219v-5h-293z" />
    <glyph glyph-name="uni0122" unicode="&#x122;" horiz-adv-x="901" 
d="M578 426v5q0 32 -29 53q-31 22 -85 21q-69 -1 -100 -35q-32 -37 -32 -119v-5q0 -90 31 -126t106 -35q95 1 118 49h-116v126h400v-65q0 -167 -102 -243q-100 -74 -313 -72q-228 2 -326 86q-100 84 -100 279v5q0 199 100 285q99 86 326 85q212 -1 313 -70q102 -71 102 -219
v-5h-293zM341 -60h220v-136q0 -124 -220 -124v89q95 0 95 27h-95v144z" />
    <glyph glyph-name="Gdotaccent" unicode="&#x120;" horiz-adv-x="901" 
d="M319 771q-37 27 -37 84q0 111 169 111t169 -111q0 -57 -36 -84q-41 -30 -133 -30t-132 30zM578 426v5q0 32 -29 53q-31 22 -85 21q-69 -1 -100 -35q-32 -37 -32 -119v-5q0 -90 31 -126t106 -35q95 1 118 49h-116v126h400v-65q0 -167 -102 -243q-100 -74 -313 -72
q-228 2 -326 86q-100 84 -100 279v5q0 199 100 285q99 86 326 85q212 -1 313 -70q102 -71 102 -219v-5h-293z" />
    <glyph glyph-name="H" unicode="H" horiz-adv-x="930" 
d="M880 700v-700h-300v255h-230v-255h-300v700h300v-245h230v245h300z" />
    <glyph glyph-name="Hbar" unicode="&#x126;" horiz-adv-x="930" 
d="M940 516h-60v-516h-300v255h-230v-255h-300v516h-60v130h60v54h300v-54h230v54h300v-54h60v-130zM580 516h-230v-61h230v61z" />
    <glyph glyph-name="I" unicode="I" horiz-adv-x="400" 
d="M50 700h300v-700h-300v700z" />
    <glyph glyph-name="IJ" unicode="&#x132;" horiz-adv-x="1296" 
d="M1172 299q0 -168 -95 -245q-94 -76 -294 -74q-201 2 -294 75q-95 75 -95 236v9h302v-8q0 -99 87 -97t87 97v209h-271v200h573v-402zM50 700h300v-700h-300v700z" />
    <glyph glyph-name="Iacute" unicode="&#xcd;" horiz-adv-x="400" 
d="M375 756h-350v123l350 81v-204zM50 700h300v-700h-300v700z" />
    <glyph glyph-name="Icircumflex" unicode="&#xce;" horiz-adv-x="400" 
d="M137 756h-200l128 194h270l128 -194h-200l-63 66zM50 700h300v-700h-300v700z" />
    <glyph glyph-name="Idieresis" unicode="&#xcf;" horiz-adv-x="400" 
d="M-79 950h251v-194h-251v194zM227 950h251v-194h-251v194zM50 700h300v-700h-300v700z" />
    <glyph glyph-name="Idotaccent" unicode="&#x130;" horiz-adv-x="400" 
d="M68 771q-37 27 -37 84q0 111 169 111t169 -111q0 -57 -36 -84q-41 -30 -133 -30t-132 30zM50 700h300v-700h-300v700z" />
    <glyph glyph-name="Igrave" unicode="&#xcc;" horiz-adv-x="400" 
d="M375 879v-123h-350v204zM50 700h300v-700h-300v700z" />
    <glyph glyph-name="Imacron" unicode="&#x12a;" horiz-adv-x="400" 
d="M-38 936h476v-161h-476v161zM50 700h300v-700h-300v700z" />
    <glyph glyph-name="Iogonek" unicode="&#x12e;" horiz-adv-x="400" 
d="M350 0q-83 -22 -90 -99q-4 -31 11 -52q15 -23 42 -23h12v-126h-81q-67 0 -109 31q-39 28 -50 76q-10 46 9 98q20 53 66 95h-110v700h300v-700z" />
    <glyph glyph-name="Itilde" unicode="&#x128;" horiz-adv-x="400" 
d="M-48 923q64 40 135 40q25 0 56 -6l29 -7l28 -7q76 -20 113 -20q81 0 135 40v-165q-60 -40 -135 -40q-37 0 -113 20l-28 7l-29 7q-31 6 -56 6q-78 0 -135 -40v165zM50 700h300v-700h-300v700z" />
    <glyph glyph-name="J" unicode="J" horiz-adv-x="852" 
d="M802 299q0 -168 -95 -245q-94 -76 -294 -74q-201 2 -294 75q-95 75 -95 236v9h302v-8q0 -99 87 -97t87 97v209h-271v200h573v-402z" />
    <glyph glyph-name="J.aalt" horiz-adv-x="852" 
d="M684 756h-370v128l370 86v-214zM802 299q0 -168 -95 -245q-94 -76 -294 -74q-201 2 -294 75q-95 75 -95 236v9h302v-8q0 -99 87 -97t87 97v209h-271v200h573v-402z" />
    <glyph glyph-name="K" unicode="K" horiz-adv-x="918" 
d="M405 256l-55 -54v-202h-300v698h300v-245l226 247h325l-287 -297l294 -403h-333z" />
    <glyph glyph-name="uni0136" unicode="&#x136;" horiz-adv-x="918" 
d="M908 0h-333l-170 256l-55 -54v-202h-300v698h300v-245l226 247h325l-287 -297zM349 -60h220v-136q0 -124 -220 -124v89q95 0 95 27h-95v144z" />
    <glyph glyph-name="L" unicode="L" horiz-adv-x="723" 
d="M713 204v-204h-663v700h300v-496h363z" />
    <glyph glyph-name="Lacute" unicode="&#x139;" horiz-adv-x="723" 
d="M387 756h-370v128l370 86v-214zM713 204v-204h-663v700h300v-496h363z" />
    <glyph glyph-name="Lcaron" unicode="&#x13d;" horiz-adv-x="723" 
d="M713 204v-204h-663v700h300v-496h363zM684 532q0 -91 -53 -126t-191 -35v89q65 0 91 11q24 10 24 33h-115v196h244v-168z" />
    <glyph glyph-name="uni013B" unicode="&#x13b;" horiz-adv-x="723" 
d="M713 204v-204h-663v700h300v-496h363zM264 -60h220v-136q0 -124 -220 -124v89q95 0 95 27h-95v144z" />
    <glyph glyph-name="Ldot" unicode="&#x13f;" horiz-adv-x="739" 
d="M713 204v-204h-663v700h300v-496h363zM453 349q-31 30 -31 100t31 100q30 30 99 30q70 0 100 -30q31 -30 31 -100t-31 -100q-30 -30 -100 -30q-69 0 -99 30z" />
    <glyph glyph-name="Lslash" unicode="&#x141;" horiz-adv-x="748" 
d="M713 204v-204h-663v256l-54 -21v143l54 21v301h300v-181l79 31v-143l-79 -31v-172h363z" />
    <glyph glyph-name="M" unicode="M" horiz-adv-x="1053" 
d="M50 700h301l149 -302q6 -12 15 -33q9 -22 10 -30h3q2 8 11 30q8 22 13 33l149 302h302v-700h-280v152q0 121 10 182h-1l-145 -294h-121l-145 294h-2q11 -67 11 -182v-152h-280v700z" />
    <glyph glyph-name="N" unicode="N" horiz-adv-x="925" 
d="M50 700h276l264 -349h3q-5 36 -9 106q-4 62 -4 99v144h295v-700h-276l-264 349h-3q5 -36 10 -106q3 -62 3 -99v-144h-295v700z" />
    <glyph glyph-name="Nacute" unicode="&#x143;" horiz-adv-x="925" 
d="M648 756h-370v128l370 86v-214zM50 700h276l264 -349h3q-5 36 -9 106q-4 62 -4 99v144h295v-700h-276l-264 349h-3q5 -36 10 -106q3 -62 3 -99v-144h-295v700z" />
    <glyph glyph-name="Ncaron" unicode="&#x147;" horiz-adv-x="925" 
d="M328 756l-128 194h200l63 -66l63 66h200l-128 -194h-270zM875 700v-700h-276l-264 349h-3q5 -36 10 -106q3 -62 3 -99v-144h-295v700h276l264 -349h3q-5 36 -9 106q-4 62 -4 99v144h295z" />
    <glyph glyph-name="uni0145" unicode="&#x145;" horiz-adv-x="925" 
d="M50 700h276l264 -349h3q-5 36 -9 106q-4 62 -4 99v144h295v-700h-276l-264 349h-3q5 -36 10 -106q3 -62 3 -99v-144h-295v700zM353 -231q95 0 95 27h-95v144h220v-136q0 -124 -220 -124v89z" />
    <glyph glyph-name="Eng" unicode="&#x14a;" horiz-adv-x="925" 
d="M875 700v-677q0 -150 -113 -231q-105 -75 -283 -75v206q106 0 113 86l-257 340h-3q5 -36 10 -106q3 -62 3 -99v-144h-295v700h276l264 -349h3q-5 36 -9 106q-4 62 -4 99v144h295z" />
    <glyph glyph-name="Ntilde" unicode="&#xd1;" horiz-adv-x="925" 
d="M215 923q64 40 135 40q25 0 56 -6l29 -7l28 -7q76 -20 113 -20q81 0 135 40v-165q-60 -40 -135 -40q-25 0 -56 6q-19 4 -57 14q-75 20 -113 20q-78 0 -135 -40v165zM50 700h276l264 -349h3q-5 36 -9 106q-4 62 -4 99v144h295v-700h-276l-264 349h-3q5 -36 10 -106
q3 -62 3 -99v-144h-295v700z" />
    <glyph glyph-name="O" unicode="O" horiz-adv-x="956" 
d="M133 66q-103 83 -103 279v5q0 200 103 285q103 86 345 85q243 -1 346 -86q102 -84 102 -284v-5q0 -197 -102 -281q-104 -86 -346 -84q-243 2 -345 86zM593 230q31 33 31 116v5q0 85 -31 119q-32 36 -115 35t-115 -35q-31 -34 -31 -119v-5q0 -84 31 -117q32 -35 115 -34
t115 35z" />
    <glyph glyph-name="Oacute" unicode="&#xd3;" horiz-adv-x="956" 
d="M663 756h-370v128l370 86v-214zM133 66q-103 83 -103 279v5q0 200 103 285q103 86 345 85q243 -1 346 -86q102 -84 102 -284v-5q0 -197 -102 -281q-104 -86 -346 -84q-243 2 -345 86zM593 230q31 33 31 116v5q0 85 -31 119q-32 36 -115 35t-115 -35q-31 -34 -31 -119v-5
q0 -84 31 -117q32 -35 115 -34t115 35z" />
    <glyph glyph-name="Ocircumflex" unicode="&#xd4;" horiz-adv-x="956" 
d="M415 756h-200l128 194h270l128 -194h-200l-63 66zM824 634q102 -84 102 -284v-5q0 -197 -102 -281q-104 -86 -346 -84q-243 2 -345 86q-103 83 -103 279v5q0 200 103 285q103 86 345 85q243 -1 346 -86zM624 351q0 85 -31 119q-32 36 -115 35t-115 -35q-31 -34 -31 -119
v-5q0 -84 31 -117q32 -35 115 -34t115 35q31 33 31 116v5z" />
    <glyph glyph-name="Odieresis" unicode="&#xd6;" horiz-adv-x="956" 
d="M199 950h251v-194h-251v194zM505 950h251v-194h-251v194zM133 66q-103 83 -103 279v5q0 200 103 285q103 86 345 85q243 -1 346 -86q102 -84 102 -284v-5q0 -197 -102 -281q-104 -86 -346 -84q-243 2 -345 86zM593 230q31 33 31 116v5q0 85 -31 119q-32 36 -115 35
t-115 -35q-31 -34 -31 -119v-5q0 -84 31 -117q32 -35 115 -34t115 35z" />
    <glyph glyph-name="Ograve" unicode="&#xd2;" horiz-adv-x="956" 
d="M663 884v-128h-370v214zM133 66q-103 83 -103 279v5q0 200 103 285q103 86 345 85q243 -1 346 -86q102 -84 102 -284v-5q0 -197 -102 -281q-104 -86 -346 -84q-243 2 -345 86zM593 230q31 33 31 116v5q0 85 -31 119q-32 36 -115 35t-115 -35q-31 -34 -31 -119v-5
q0 -84 31 -117q32 -35 115 -34t115 35z" />
    <glyph glyph-name="Ohungarumlaut" unicode="&#x150;" horiz-adv-x="956" 
d="M240 960h251l-80 -204h-221zM546 960h251l-80 -204h-221zM133 66q-103 83 -103 279v5q0 200 103 285q103 86 345 85q243 -1 346 -86q102 -84 102 -284v-5q0 -197 -102 -281q-104 -86 -346 -84q-243 2 -345 86zM593 230q31 33 31 116v5q0 85 -31 119q-32 36 -115 35
t-115 -35q-31 -34 -31 -119v-5q0 -84 31 -117q32 -35 115 -34t115 35z" />
    <glyph glyph-name="Omacron" unicode="&#x14c;" horiz-adv-x="956" 
d="M240 936h476v-161h-476v161zM133 66q-103 83 -103 279v5q0 200 103 285q103 86 345 85q243 -1 346 -86q102 -84 102 -284v-5q0 -197 -102 -281q-104 -86 -346 -84q-243 2 -345 86zM593 230q31 33 31 116v5q0 85 -31 119q-32 36 -115 35t-115 -35q-31 -34 -31 -119v-5
q0 -84 31 -117q32 -35 115 -34t115 35z" />
    <glyph glyph-name="uni01EA" unicode="&#x1ea;" horiz-adv-x="956" 
d="M824 634q102 -84 102 -284v-5q0 -141 -51 -222q-52 -84 -166 -118q-73 -27 -77 -99q-1 -29 13 -49q15 -21 41 -21h12v-126h-81q-123 0 -155 92q-30 88 43 178h-27q-243 2 -345 86q-103 83 -103 279v5q0 200 103 285q103 86 345 85q243 -1 346 -86zM593 230q31 33 31 116
v5q0 85 -31 119q-32 36 -115 35t-115 -35q-31 -34 -31 -119v-5q0 -84 31 -117q32 -35 115 -34t115 35z" />
    <glyph glyph-name="Oslash" unicode="&#xd8;" horiz-adv-x="956" 
d="M824 634q102 -84 102 -284v-5q0 -197 -102 -281q-104 -86 -346 -84q-243 2 -345 86q-103 83 -103 279v5q0 200 103 285q103 86 345 85q243 -1 346 -86zM332 346q0 -17 2 -43l226 190q-28 12 -82 12q-83 -1 -115 -35q-31 -34 -31 -119v-5zM624 351q0 27 -3 46l-226 -190
q32 -12 83 -12q83 1 115 35q31 33 31 116v5z" />
    <glyph glyph-name="Oslashacute" unicode="&#x1fe;" horiz-adv-x="956" 
d="M663 756h-370v128l370 86v-214zM824 634q102 -84 102 -284v-5q0 -197 -102 -281q-104 -86 -346 -84q-243 2 -345 86q-103 83 -103 279v5q0 200 103 285q103 86 345 85q243 -1 346 -86zM332 346q0 -17 2 -43l226 190q-28 12 -82 12q-83 -1 -115 -35q-31 -34 -31 -119v-5z
M624 351q0 27 -3 46l-226 -190q32 -12 83 -12q83 1 115 35q31 33 31 116v5z" />
    <glyph glyph-name="Otilde" unicode="&#xd5;" horiz-adv-x="956" 
d="M230 923q64 40 135 40q38 0 113 -20l28 -7l29 -7q31 -6 56 -6q81 0 135 40v-165q-60 -40 -135 -40q-25 0 -56 6l-29 7l-28 7q-75 20 -113 20q-78 0 -135 -40v165zM133 66q-103 83 -103 279v5q0 200 103 285q103 86 345 85q243 -1 346 -86q102 -84 102 -284v-5
q0 -197 -102 -281q-104 -86 -346 -84q-243 2 -345 86zM593 230q31 33 31 116v5q0 85 -31 119q-32 36 -115 35t-115 -35q-31 -34 -31 -119v-5q0 -84 31 -117q32 -35 115 -34t115 35z" />
    <glyph glyph-name="OE" unicode="&#x152;" horiz-adv-x="1355" 
d="M1327 174v-174h-639q-89 -21 -210 -20q-243 2 -345 86q-103 83 -103 279v5q0 200 103 285q103 86 345 85q117 0 203 -20h640v-174h-397v-89h369v-174h-369v-89h403zM593 230q31 33 31 116v5q0 85 -31 119q-32 36 -115 35t-115 -35q-31 -34 -31 -119v-5q0 -84 31 -117
q32 -35 115 -34t115 35z" />
    <glyph glyph-name="P" unicode="P" horiz-adv-x="872" 
d="M525 699q167 0 244 -62q79 -63 79 -201v-4q0 -134 -79 -197q-78 -62 -244 -62h-185v-173h-290v700h290v-1h185zM549 437q0 64 -73 64h-136v-129h136q73 0 73 62v3z" />
    <glyph glyph-name="Thorn" unicode="&#xde;" horiz-adv-x="878" 
d="M525 614q167 0 244 -62q79 -63 79 -201v-4q0 -134 -79 -197q-78 -62 -244 -62h-185v-88h-290v700h290v-86h185zM549 352q0 64 -73 64h-136v-129h136q73 0 73 62v3z" />
    <glyph glyph-name="Q" unicode="Q" horiz-adv-x="956" 
d="M824 634q102 -84 102 -284v-5q0 -172 -77 -257q-78 -87 -255 -104q36 -37 173 -37v-200q-388 0 -405 239q-178 19 -255 104q-77 84 -77 255v5q0 200 103 285q103 86 345 85q243 -1 346 -86zM624 351q0 85 -31 119q-32 36 -115 35t-115 -35q-31 -34 -31 -119v-5
q0 -84 31 -117q32 -35 115 -34t115 35q31 33 31 116v5z" />
    <glyph glyph-name="R" unicode="R" horiz-adv-x="881" 
d="M399 214h-59v-214h-290v700h475q165 0 244 -59q79 -60 79 -184v-4q0 -166 -152 -216l175 -237h-333zM340 393h136q73 0 73 62v3q0 64 -73 64h-136v-129z" />
    <glyph glyph-name="Racute" unicode="&#x154;" horiz-adv-x="881" 
d="M611 756h-370v128l370 86v-214zM399 214h-59v-214h-290v700h475q165 0 244 -59q79 -60 79 -184v-4q0 -166 -152 -216l175 -237h-333zM340 393h136q73 0 73 62v3q0 64 -73 64h-136v-129z" />
    <glyph glyph-name="Rcaron" unicode="&#x158;" horiz-adv-x="881" 
d="M291 756l-128 194h200l63 -66l63 66h200l-128 -194h-270zM399 214h-59v-214h-290v700h475q165 0 244 -59q79 -60 79 -184v-4q0 -166 -152 -216l175 -237h-333zM340 393h136q73 0 73 62v3q0 64 -73 64h-136v-129z" />
    <glyph glyph-name="uni0156" unicode="&#x156;" horiz-adv-x="881" 
d="M340 0h-290v700h475q165 0 244 -59q79 -60 79 -184v-4q0 -166 -152 -216l175 -237h-333l-139 214h-59v-214zM340 522v-129h136q73 0 73 62v3q0 64 -73 64h-136zM330 -60h220v-136q0 -124 -220 -124v89q95 0 95 27h-95v144z" />
    <glyph glyph-name="S" unicode="S" horiz-adv-x="847" 
d="M118 38q-94 58 -94 185v7h287v-7q0 -61 118 -61q101 0 101 43v6q0 37 -78 51q-24 5 -79 11l-45 4l-46 6q-114 17 -171 56q-78 52 -78 154v4q0 222 383 222q403 0 403 -246v-7h-296v8q0 63 -107 63q-90 0 -90 -42v-5q0 -37 78 -50q24 -5 79 -10l45 -4l47 -6
q113 -16 170 -55q78 -52 78 -156v-5q0 -111 -91 -165q-98 -58 -311 -58q-209 0 -303 57z" />
    <glyph glyph-name="Sacute" unicode="&#x15a;" horiz-adv-x="847" 
d="M609 756h-370v128l370 86v-214zM118 38q-94 58 -94 185v7h287v-7q0 -61 118 -61q101 0 101 43v6q0 37 -78 51q-24 5 -79 11l-45 4l-46 6q-114 17 -171 56q-78 52 -78 154v4q0 222 383 222q403 0 403 -246v-7h-296v8q0 63 -107 63q-90 0 -90 -42v-5q0 -37 78 -50
q24 -5 79 -10l45 -4l47 -6q113 -16 170 -55q78 -52 78 -156v-5q0 -111 -91 -165q-98 -58 -311 -58q-209 0 -303 57z" />
    <glyph glyph-name="Scaron" unicode="&#x160;" horiz-adv-x="847" 
d="M289 756l-128 194h200l63 -66l63 66h200l-128 -194h-270zM326 490q0 -37 78 -50q24 -5 79 -10l45 -4l47 -6q113 -16 170 -55q78 -52 78 -156v-5q0 -111 -91 -165q-98 -58 -311 -58q-209 0 -303 57q-94 58 -94 185v7h287v-7q0 -61 118 -61q101 0 101 43v6q0 37 -78 51
q-24 5 -79 11l-45 4l-46 6q-114 17 -171 56q-78 52 -78 154v4q0 222 383 222q403 0 403 -246v-7h-296v8q0 63 -107 63q-90 0 -90 -42v-5z" />
    <glyph glyph-name="Scedilla" unicode="&#x15e;" horiz-adv-x="847" 
d="M326 490q0 -37 78 -50q24 -5 79 -10l45 -4l47 -6q113 -16 170 -55q78 -52 78 -156v-5q0 -198 -310 -220l-28 -39q128 0 128 -122q0 -123 -154 -123h-144v94h75q36 0 36 29q0 28 -36 28h-65v75l37 56q-177 7 -257 65q-81 58 -81 176v7h287v-7q0 -61 118 -61q101 0 101 43
v6q0 37 -78 51q-24 5 -79 11l-45 4l-46 6q-114 17 -171 56q-78 52 -78 154v4q0 222 383 222q403 0 403 -246v-7h-296v8q0 63 -107 63q-90 0 -90 -42v-5z" />
    <glyph glyph-name="uni0218" unicode="&#x218;" horiz-adv-x="847" 
d="M118 38q-94 58 -94 185v7h287v-7q0 -61 118 -61q101 0 101 43v6q0 37 -78 51q-24 5 -79 11l-45 4l-46 6q-114 17 -171 56q-78 52 -78 154v4q0 222 383 222q403 0 403 -246v-7h-296v8q0 63 -107 63q-90 0 -90 -42v-5q0 -37 78 -50q24 -5 79 -10l45 -4l47 -6
q113 -16 170 -55q78 -52 78 -156v-5q0 -111 -91 -165q-98 -58 -311 -58q-209 0 -303 57zM354 -231q95 0 95 27h-95v144h220v-136q0 -124 -220 -124v89z" />
    <glyph glyph-name="uni1E9E" unicode="&#x1e9e;" horiz-adv-x="859" 
d="M806 334q35 -47 35 -130v-3q0 -201 -282 -201h-132v166h63q59 0 59 56v3q0 55 -59 55h-63v133l93 61q0 63 -79 63q-91 0 -91 -100v-437h-300v437q0 129 89 202q99 80 294 80q177 0 275 -65t98 -181l-110 -73q76 -19 110 -66z" />
    <glyph glyph-name="T" unicode="T" horiz-adv-x="803" 
d="M783 496h-222v-496h-300v496h-241v204h763v-204z" />
    <glyph glyph-name="Tbar" unicode="&#x166;" horiz-adv-x="803" 
d="M561 496v-138h100v-150h-100v-208h-300v208h-100v150h100v138h-241v204h763v-204h-222z" />
    <glyph glyph-name="Tcaron" unicode="&#x164;" horiz-adv-x="803" 
d="M267 756l-128 194h200l63 -66l63 66h200l-128 -194h-270zM783 496h-222v-496h-300v496h-241v204h763v-204z" />
    <glyph glyph-name="uni0162" unicode="&#x162;" horiz-adv-x="803" 
d="M783 496h-222v-496h-99l-39 -55q128 0 128 -122q0 -123 -154 -123h-144v94h75q36 0 36 29q0 28 -36 28h-65v75l49 74h-51v496h-241v204h763v-204z" />
    <glyph glyph-name="uni021A" unicode="&#x21a;" horiz-adv-x="803" 
d="M783 496h-222v-496h-300v496h-241v204h763v-204zM292 -60h220v-136q0 -124 -220 -124v89q95 0 95 27h-95v144z" />
    <glyph glyph-name="U" unicode="U" horiz-adv-x="922" 
d="M146 63q-98 82 -98 262v376h302v-375q0 -132 111 -131t111 131v375h302v-376q0 -181 -98 -264q-99 -83 -315 -81q-217 2 -315 83z" />
    <glyph glyph-name="Uacute" unicode="&#xda;" horiz-adv-x="922" 
d="M646 756h-370v128l370 86v-214zM146 63q-98 82 -98 262v376h302v-375q0 -132 111 -131t111 131v375h302v-376q0 -181 -98 -264q-99 -83 -315 -81q-217 2 -315 83z" />
    <glyph glyph-name="Ucircumflex" unicode="&#xdb;" horiz-adv-x="922" 
d="M398 756h-200l128 194h270l128 -194h-200l-63 66zM874 701v-376q0 -181 -98 -264q-99 -83 -315 -81q-217 2 -315 83q-98 82 -98 262v376h302v-375q0 -132 111 -131t111 131v375h302z" />
    <glyph glyph-name="Udieresis" unicode="&#xdc;" horiz-adv-x="922" 
d="M182 950h251v-194h-251v194zM488 950h251v-194h-251v194zM146 63q-98 82 -98 262v376h302v-375q0 -132 111 -131t111 131v375h302v-376q0 -181 -98 -264q-99 -83 -315 -81q-217 2 -315 83z" />
    <glyph glyph-name="Ugrave" unicode="&#xd9;" horiz-adv-x="922" 
d="M646 884v-128h-370v214zM146 63q-98 82 -98 262v376h302v-375q0 -132 111 -131t111 131v375h302v-376q0 -181 -98 -264q-99 -83 -315 -81q-217 2 -315 83z" />
    <glyph glyph-name="Uhungarumlaut" unicode="&#x170;" horiz-adv-x="922" 
d="M223 960h251l-80 -204h-221zM529 960h251l-80 -204h-221zM146 63q-98 82 -98 262v376h302v-375q0 -132 111 -131t111 131v375h302v-376q0 -181 -98 -264q-99 -83 -315 -81q-217 2 -315 83z" />
    <glyph glyph-name="Umacron" unicode="&#x16a;" horiz-adv-x="922" 
d="M223 936h476v-161h-476v161zM146 63q-98 82 -98 262v376h302v-375q0 -132 111 -131t111 131v375h302v-376q0 -181 -98 -264q-99 -83 -315 -81q-217 2 -315 83z" />
    <glyph glyph-name="Uogonek" unicode="&#x172;" horiz-adv-x="922" 
d="M874 701v-376q0 -259 -209 -321q-70 -29 -72 -99q-1 -29 13 -49q15 -20 41 -20h12v-126h-81q-123 0 -155 92q-30 88 43 178h-5q-217 2 -315 83q-98 82 -98 262v376h302v-375q0 -132 111 -131t111 131v375h302z" />
    <glyph glyph-name="Uring" unicode="&#x16e;" horiz-adv-x="922" 
d="M874 701v-376q0 -181 -98 -264q-99 -83 -315 -81q-217 2 -315 83q-98 82 -98 262v376h242q-16 36 -16 86q0 82 47 129q49 50 140 50t140 -50q47 -47 47 -129q0 -50 -16 -86h242zM405 787q0 -55 56 -55q54 0 54 55q0 52 -54 52q-56 0 -56 -52zM572 326v306
q-46 -27 -111 -27t-111 27v-306q0 -132 111 -131t111 131z" />
    <glyph glyph-name="Utilde" unicode="&#x168;" horiz-adv-x="922" 
d="M213 923q64 40 135 40q25 0 56 -6l29 -7l28 -7q76 -20 113 -20q81 0 135 40v-165q-60 -40 -135 -40q-25 0 -56 6l-29 7l-28 7q-75 20 -113 20q-78 0 -135 -40v165zM146 63q-98 82 -98 262v376h302v-375q0 -132 111 -131t111 131v375h302v-376q0 -181 -98 -264
q-99 -83 -315 -81q-217 2 -315 83z" />
    <glyph glyph-name="V" unicode="V" horiz-adv-x="878" 
d="M0 700h299l109 -365q10 -32 17 -55q9 -34 14 -56h3q4 21 15 56l8 29q6 19 8 26l111 365h294l-291 -700h-300z" />
    <glyph glyph-name="W" unicode="W" horiz-adv-x="1241" 
d="M1241 700l-222 -700h-297l-79 219q-6 17 -13 40l-5 19l-3 9l-2 8h-3q-9 -39 -22 -76l-76 -219h-297l-222 700h283l113 -456h2l106 362l-34 94h239l134 -456h2l113 456h283z" />
    <glyph glyph-name="Wacute" unicode="&#x1e82;" horiz-adv-x="1241" 
d="M794 766h-370v128l370 86v-214zM1241 700l-222 -700h-297l-79 219q-6 17 -13 40l-5 19l-3 9l-2 8h-3q-9 -39 -22 -76l-76 -219h-297l-222 700h283l113 -456h2l106 362l-34 94h239l134 -456h2l113 456h283z" />
    <glyph glyph-name="Wcircumflex" unicode="&#x174;" horiz-adv-x="1241" 
d="M546 766h-200l128 194h270l128 -194h-200l-63 66zM1241 700l-222 -700h-297l-79 219q-6 17 -13 40l-5 19l-3 9l-2 8h-3q-9 -39 -22 -76l-76 -219h-297l-222 700h283l113 -456h2l106 362l-34 94h239l134 -456h2l113 456h283z" />
    <glyph glyph-name="Wdieresis" unicode="&#x1e84;" horiz-adv-x="1241" 
d="M581 766h-251v194h251v-194zM887 766h-251v194h251v-194zM1241 700l-222 -700h-297l-79 219q-6 17 -13 40l-5 19l-3 9l-2 8h-3q-9 -39 -22 -76l-76 -219h-297l-222 700h283l113 -456h2l106 362l-34 94h239l134 -456h2l113 456h283z" />
    <glyph glyph-name="Wgrave" unicode="&#x1e80;" horiz-adv-x="1241" 
d="M794 766h-370v214l370 -86v-128zM1241 700l-222 -700h-297l-79 219q-6 17 -13 40l-5 19l-3 9l-2 8h-3q-9 -39 -22 -76l-76 -219h-297l-222 700h283l113 -456h2l106 362l-34 94h239l134 -456h2l113 456h283z" />
    <glyph glyph-name="X" unicode="X" horiz-adv-x="930" 
d="M608 0l-141 198l-145 -198h-322l262 349l-257 351h323l137 -191l137 191h323l-258 -342l263 -358h-322z" />
    <glyph glyph-name="Y" unicode="Y" horiz-adv-x="903" 
d="M597 253v-253h-300v253l-297 447h309l99 -184q14 -24 41 -94q24 59 43 93l103 185h308z" />
    <glyph glyph-name="Yacute" unicode="&#xdd;" horiz-adv-x="903" 
d="M636 756h-370v128l370 86v-214zM597 253v-253h-300v253l-297 447h309l99 -184q14 -24 41 -94q24 59 43 93l103 185h308z" />
    <glyph glyph-name="Ycircumflex" unicode="&#x176;" horiz-adv-x="903" 
d="M388 756h-200l128 194h270l128 -194h-200l-63 66zM597 253v-253h-300v253l-297 447h309l99 -184q14 -24 41 -94q24 59 43 93l103 185h308z" />
    <glyph glyph-name="Ydieresis" unicode="&#x178;" horiz-adv-x="903" 
d="M423 756h-251v194h251v-194zM729 756h-251v194h251v-194zM597 253v-253h-300v253l-297 447h309l99 -184q14 -24 41 -94q24 59 43 93l103 185h308z" />
    <glyph glyph-name="Ygrave" unicode="&#x1ef2;" horiz-adv-x="903" 
d="M636 756h-370v214l370 -86v-128zM597 253v-253h-300v253l-297 447h309l99 -184q14 -24 41 -94q24 59 43 93l103 185h308z" />
    <glyph glyph-name="uni1EF8" unicode="&#x1ef8;" horiz-adv-x="903" 
d="M451 778q-75 20 -113 20q-78 0 -135 -40v165q64 40 135 40q38 0 113 -20q76 -20 113 -20q81 0 135 40v-165q-60 -40 -135 -40q-37 0 -113 20zM597 253v-253h-300v253l-297 447h309l99 -184q14 -24 41 -94q24 59 43 93l103 185h308z" />
    <glyph glyph-name="Z" unicode="Z" horiz-adv-x="822" 
d="M798 208v-208h-774v142l346 350h-331v208h744v-152l-334 -340h349z" />
    <glyph glyph-name="Zacute" unicode="&#x179;" horiz-adv-x="822" 
d="M596 756h-370v128l370 86v-214zM798 208v-208h-774v142l346 350h-331v208h744v-152l-334 -340h349z" />
    <glyph glyph-name="Zcaron" unicode="&#x17d;" horiz-adv-x="822" 
d="M276 756l-128 194h200l63 -66l63 66h200l-128 -194h-270zM798 208v-208h-774v142l346 350h-331v208h744v-152l-334 -340h349z" />
    <glyph glyph-name="Zdotaccent" unicode="&#x17b;" horiz-adv-x="822" 
d="M279 771q-37 27 -37 84q0 111 169 111t169 -111q0 -57 -36 -84q-41 -30 -133 -30t-132 30zM798 208v-208h-774v142l346 350h-331v208h744v-152l-334 -340h349z" />
    <glyph glyph-name="A.ss01" horiz-adv-x="924" 
d="M874 700v-700h-268v94h-224l-73 -94h-309l544 700h330zM499 265h108l3 237q-26 -72 -41 -100z" />
    <glyph glyph-name="Aacute.ss01" horiz-adv-x="924" 
d="M921 970v-214h-370v128zM544 700h330v-700h-268v94h-224l-73 -94h-309zM569 402l-70 -137h108l3 237q-26 -72 -41 -100z" />
    <glyph glyph-name="Acircumflex.ss01" horiz-adv-x="924" 
d="M673 756h-200l128 194h270l128 -194h-200l-63 66zM544 700h330v-700h-268v94h-224l-73 -94h-309zM569 402l-70 -137h108l3 237q-26 -72 -41 -100z" />
    <glyph glyph-name="Adieresis.ss01" horiz-adv-x="924" 
d="M708 756h-251v194h251v-194zM1014 950v-194h-251v194h251zM544 700h330v-700h-268v94h-224l-73 -94h-309zM569 402l-70 -137h108l3 237q-26 -72 -41 -100z" />
    <glyph glyph-name="Agrave.ss01" horiz-adv-x="924" 
d="M921 884v-128h-370v214zM544 700h330v-700h-268v94h-224l-73 -94h-309zM569 402l-70 -137h108l3 237q-26 -72 -41 -100z" />
    <glyph glyph-name="Atilde.ss01" horiz-adv-x="924" 
d="M984 963v-165q-60 -40 -135 -40q-37 0 -113 20q-75 20 -113 20q-78 0 -135 -40v165q64 40 135 40q25 0 56 -6l29 -7l28 -7q76 -20 113 -20q81 0 135 40zM544 700h330v-700h-268v94h-224l-73 -94h-309zM569 402l-70 -137h108l3 237q-26 -72 -41 -100z" />
    <glyph glyph-name="W.aalt" horiz-adv-x="1205" 
d="M1205 700l-198 -700h-300l-104 347l-105 -347h-300l-198 700h300l86 -451l128 451h177l128 -451l86 451h300z" />
    <glyph glyph-name="Wacute.aalt" horiz-adv-x="1205" 
d="M792 756h-370v128l370 86v-214zM1205 700l-198 -700h-300l-104 347l-105 -347h-300l-198 700h300l86 -451l128 451h177l128 -451l86 451h300z" />
    <glyph glyph-name="Wcircumflex.aalt" horiz-adv-x="1205" 
d="M544 756h-200l128 194h270l128 -194h-200l-63 66zM1205 700l-198 -700h-300l-104 347l-105 -347h-300l-198 700h300l86 -451l128 451h177l128 -451l86 451h300z" />
    <glyph glyph-name="Wdieresis.aalt" horiz-adv-x="1205" 
d="M579 756h-251v194h251v-194zM885 756h-251v194h251v-194zM1205 700l-198 -700h-300l-104 347l-105 -347h-300l-198 700h300l86 -451l128 451h177l128 -451l86 451h300z" />
    <glyph glyph-name="Wgrave.aalt" horiz-adv-x="1205" 
d="M792 756h-370v214l370 -86v-128zM1205 700l-198 -700h-300l-104 347l-105 -347h-300l-198 700h300l86 -451l128 451h177l128 -451l86 451h300z" />
    <glyph glyph-name="Y.aalt" horiz-adv-x="878" 
d="M852 701v-145q0 -146 -63 -224q-64 -79 -200 -101v-231h-300v233q-137 24 -200 101t-63 222v145h302v-144q0 -132 111 -131t111 131v144h302z" />
    <glyph glyph-name="Yacute.aalt" horiz-adv-x="878" 
d="M624 756h-370v128l370 86v-214zM852 701v-145q0 -146 -63 -224q-64 -79 -200 -101v-231h-300v233q-137 24 -200 101t-63 222v145h302v-144q0 -132 111 -131t111 131v144h302z" />
    <glyph glyph-name="Ycircumflex.aalt" horiz-adv-x="878" 
d="M376 756h-200l128 194h270l128 -194h-200l-63 66zM852 701v-145q0 -146 -63 -224q-64 -79 -200 -101v-231h-300v233q-137 24 -200 101t-63 222v145h302v-144q0 -132 111 -131t111 131v144h302z" />
    <glyph glyph-name="Ydieresis.aalt" horiz-adv-x="878" 
d="M411 756h-251v194h251v-194zM717 756h-251v194h251v-194zM852 701v-145q0 -146 -63 -224q-64 -79 -200 -101v-231h-300v233q-137 24 -200 101t-63 222v145h302v-144q0 -132 111 -131t111 131v144h302z" />
    <glyph glyph-name="Ygrave.aalt" horiz-adv-x="878" 
d="M624 756h-370v214l370 -86v-128zM852 701v-145q0 -146 -63 -224q-64 -79 -200 -101v-231h-300v233q-137 24 -200 101t-63 222v145h302v-144q0 -132 111 -131t111 131v144h302z" />
    <glyph glyph-name="A.ss02" horiz-adv-x="924" 
d="M542 94h-224v-94h-268v700h330l544 -700h-309zM355 402q-15 28 -41 100l3 -237h108z" />
    <glyph glyph-name="Aacute.ss02" horiz-adv-x="924" 
d="M373 756h-370v128l370 86v-214zM542 94h-224v-94h-268v700h330l544 -700h-309zM355 402q-15 28 -41 100l3 -237h108z" />
    <glyph glyph-name="Acircumflex.ss02" horiz-adv-x="924" 
d="M125 756h-200l128 194h270l128 -194h-200l-63 66zM542 94h-224v-94h-268v700h330l544 -700h-309zM355 402q-15 28 -41 100l3 -237h108z" />
    <glyph glyph-name="Adieresis.ss02" horiz-adv-x="924" 
d="M160 756h-251v194h251v-194zM466 756h-251v194h251v-194zM542 94h-224v-94h-268v700h330l544 -700h-309zM355 402q-15 28 -41 100l3 -237h108z" />
    <glyph glyph-name="Agrave.ss02" horiz-adv-x="924" 
d="M373 756h-370v214l370 -86v-128zM542 94h-224v-94h-268v700h330l544 -700h-309zM355 402q-15 28 -41 100l3 -237h108z" />
    <glyph glyph-name="Atilde.ss02" horiz-adv-x="924" 
d="M188 778l-28 7l-29 7q-31 6 -56 6q-78 0 -135 -40v165q64 40 135 40q25 0 56 -6l29 -7l28 -7q76 -20 113 -20q81 0 135 40v-165q-60 -40 -135 -40q-37 0 -113 20zM542 94h-224v-94h-268v700h330l544 -700h-309zM355 402q-15 28 -41 100l3 -237h108z" />
    <glyph glyph-name="a" unicode="a" horiz-adv-x="883" 
d="M736 648q99 -72 99 -225v-423h-275v61q-101 -80 -256 -80q-131 0 -201 54q-71 53 -71 155v5q0 113 84 168q91 60 290 60h129v34q0 69 -98 69t-98 -69v-2h-288v2q0 262 391 262q198 0 294 -71zM500 190q35 20 35 52v39h-153q-62 0 -62 -52v-1q0 -57 97 -57q50 0 83 19z
" />
    <glyph glyph-name="aacute" unicode="&#xe1;" horiz-adv-x="883" 
d="M629 756h-370v128l370 86v-214zM736 648q99 -72 99 -225v-423h-275v61q-101 -80 -256 -80q-131 0 -201 54q-71 53 -71 155v5q0 113 84 168q91 60 290 60h129v34q0 69 -98 69t-98 -69v-2h-288v2q0 262 391 262q198 0 294 -71zM500 190q35 20 35 52v39h-153q-62 0 -62 -52
v-1q0 -57 97 -57q50 0 83 19z" />
    <glyph glyph-name="abreve" unicode="&#x103;" horiz-adv-x="883" 
d="M210 929v21h169v-16q0 -21 16 -34q18 -15 49 -15q65 0 65 49v16h169v-21q0 -183 -233 -183q-235 0 -235 183zM736 648q99 -72 99 -225v-423h-275v61q-101 -80 -256 -80q-131 0 -201 54q-71 53 -71 155v5q0 113 84 168q91 60 290 60h129v34q0 69 -98 69t-98 -69v-2h-288v2
q0 262 391 262q198 0 294 -71zM500 190q35 20 35 52v39h-153q-62 0 -62 -52v-1q0 -57 97 -57q50 0 83 19z" />
    <glyph glyph-name="acircumflex" unicode="&#xe2;" horiz-adv-x="883" 
d="M381 756h-200l128 194h270l128 -194h-200l-63 66zM736 648q99 -72 99 -225v-423h-275v61q-101 -80 -256 -80q-131 0 -201 54q-71 53 -71 155v5q0 113 84 168q91 60 290 60h129v34q0 69 -98 69t-98 -69v-2h-288v2q0 262 391 262q198 0 294 -71zM500 190q35 20 35 52v39
h-153q-62 0 -62 -52v-1q0 -57 97 -57q50 0 83 19z" />
    <glyph glyph-name="adieresis" unicode="&#xe4;" horiz-adv-x="883" 
d="M416 756h-251v194h251v-194zM722 756h-251v194h251v-194zM736 648q99 -72 99 -225v-423h-275v61q-101 -80 -256 -80q-131 0 -201 54q-71 53 -71 155v5q0 113 84 168q91 60 290 60h129v34q0 69 -98 69t-98 -69v-2h-288v2q0 262 391 262q198 0 294 -71zM500 190
q35 20 35 52v39h-153q-62 0 -62 -52v-1q0 -57 97 -57q50 0 83 19z" />
    <glyph glyph-name="agrave" unicode="&#xe0;" horiz-adv-x="883" 
d="M629 756h-370v214l370 -86v-128zM736 648q99 -72 99 -225v-423h-275v61q-101 -80 -256 -80q-131 0 -201 54q-71 53 -71 155v5q0 113 84 168q91 60 290 60h129v34q0 69 -98 69t-98 -69v-2h-288v2q0 262 391 262q198 0 294 -71zM500 190q35 20 35 52v39h-153q-62 0 -62 -52
v-1q0 -57 97 -57q50 0 83 19z" />
    <glyph glyph-name="amacron" unicode="&#x101;" horiz-adv-x="883" 
d="M682 775h-476v161h476v-161zM736 648q99 -72 99 -225v-423h-275v61q-101 -80 -256 -80q-131 0 -201 54q-71 53 -71 155v5q0 113 84 168q91 60 290 60h129v34q0 69 -98 69t-98 -69v-2h-288v2q0 262 391 262q198 0 294 -71zM500 190q35 20 35 52v39h-153q-62 0 -62 -52v-1
q0 -57 97 -57q50 0 83 19z" />
    <glyph glyph-name="aogonek" unicode="&#x105;" horiz-adv-x="883" 
d="M835 0q-83 -22 -90 -99q-4 -31 11 -52q15 -23 42 -23h12v-126h-81q-67 0 -109 31q-39 28 -50 76q-10 46 9 98q20 53 66 95h-85v61q-101 -80 -256 -80q-131 0 -201 54q-71 53 -71 155v5q0 113 84 168q91 60 290 60h129v34q0 69 -98 69t-98 -69v-2h-288v2q0 262 391 262
q198 0 294 -71q99 -72 99 -225v-423zM500 190q35 20 35 52v39h-153q-62 0 -62 -52v-1q0 -57 97 -57q50 0 83 19z" />
    <glyph glyph-name="aring" unicode="&#xe5;" horiz-adv-x="883" 
d="M835 423v-423h-275v61q-101 -80 -256 -80q-131 0 -201 54q-71 53 -71 155v5q0 113 84 168q91 60 290 60h129v34q0 69 -98 69t-98 -69v-2h-288v2q0 195 222 246q-16 35 -16 84q0 82 47 129q49 50 140 50t140 -50q47 -47 47 -129q0 -50 -16 -86q220 -53 220 -278zM388 787
q0 -55 56 -55q54 0 54 55q0 52 -54 52q-56 0 -56 -52zM500 190q35 20 35 52v39h-153q-62 0 -62 -52v-1q0 -57 97 -57q50 0 83 19z" />
    <glyph glyph-name="atilde" unicode="&#xe3;" horiz-adv-x="883" 
d="M444 778l-28 7l-29 7q-31 6 -56 6q-78 0 -135 -40v165q64 40 135 40q38 0 113 -20l28 -7l29 -7q31 -6 56 -6q81 0 135 40v-165q-60 -40 -135 -40q-37 0 -113 20zM736 648q99 -72 99 -225v-423h-275v61q-101 -80 -256 -80q-131 0 -201 54q-71 53 -71 155v5q0 113 84 168
q91 60 290 60h129v34q0 69 -98 69t-98 -69v-2h-288v2q0 262 391 262q198 0 294 -71zM500 190q35 20 35 52v39h-153q-62 0 -62 -52v-1q0 -57 97 -57q50 0 83 19z" />
    <glyph glyph-name="ae" unicode="&#xe6;" horiz-adv-x="1411" 
d="M842 309v-1q0 -112 125 -112q121 0 121 67v1h293v-5q0 -132 -101 -204q-107 -75 -313 -75q-271 0 -364 130q-100 -129 -287 -129q-147 0 -216 55q-70 54 -70 170v5q0 109 85 157q84 47 279 47h149q0 46 -18 63q-19 17 -70 17h-50q-54 0 -70 -7q-17 -8 -17 -31v-2h-278v2
q0 141 91 202t302 61q158 0 253 -53q96 53 281 53q222 0 318 -95t96 -314v-2h-539zM842 403h246v1q0 100 -121 100q-125 0 -125 -100v-1zM490 195q53 0 53 49v51h-149q-50 0 -68 -11t-18 -40v-2q1 -27 19 -37t67 -10h96z" />
    <glyph glyph-name="aeacute" unicode="&#x1fd;" horiz-adv-x="1411" 
d="M871 756h-370v128l370 86v-214zM842 309v-1q0 -112 125 -112q121 0 121 67v1h293v-5q0 -132 -101 -204q-107 -75 -313 -75q-271 0 -364 130q-100 -129 -287 -129q-147 0 -216 55q-70 54 -70 170v5q0 109 85 157q84 47 279 47h149q0 46 -18 63q-19 17 -70 17h-50
q-54 0 -70 -7q-17 -8 -17 -31v-2h-278v2q0 141 91 202t302 61q158 0 253 -53q96 53 281 53q222 0 318 -95t96 -314v-2h-539zM842 403h246v1q0 100 -121 100q-125 0 -125 -100v-1zM490 195q53 0 53 49v51h-149q-50 0 -68 -11t-18 -40v-2q1 -27 19 -37t67 -10h96z" />
    <glyph glyph-name="b" unicode="b" horiz-adv-x="881" 
d="M863 194v-3q0 -191 -276 -191h-538v700h540q243 0 243 -174v-3q0 -117 -99 -152q130 -39 130 -177zM333 537v-114h167q58 0 58 56v3q0 55 -58 55h-167zM577 225q0 55 -58 55h-186v-114h186q58 0 58 56v3z" />
    <glyph glyph-name="c" unicode="c" horiz-adv-x="901" 
d="M130 66q-100 84 -100 279v5q0 199 100 285q99 86 326 85q214 -1 313 -74q102 -76 102 -245v-5h-293v5q0 106 -122 104q-68 -1 -96 -35q-28 -35 -28 -119v-5q0 -83 28 -117q29 -35 96 -34q121 2 121 100v5h294v-5q0 -167 -102 -243q-100 -74 -313 -72q-228 2 -326 86z" />
    <glyph glyph-name="cacute" unicode="&#x107;" horiz-adv-x="901" 
d="M636 756h-370v128l370 86v-214zM130 66q-100 84 -100 279v5q0 199 100 285q99 86 326 85q214 -1 313 -74q102 -76 102 -245v-5h-293v5q0 106 -122 104q-68 -1 -96 -35q-28 -35 -28 -119v-5q0 -83 28 -117q29 -35 96 -34q121 2 121 100v5h294v-5q0 -167 -102 -243
q-100 -74 -313 -72q-228 2 -326 86z" />
    <glyph glyph-name="ccaron" unicode="&#x10d;" horiz-adv-x="901" 
d="M316 756l-128 194h200l63 -66l63 66h200l-128 -194h-270zM578 396v5q0 106 -122 104q-68 -1 -96 -35q-28 -35 -28 -119v-5q0 -83 28 -117q29 -35 96 -34q121 2 121 100v5h294v-5q0 -167 -102 -243q-100 -74 -313 -72q-228 2 -326 86q-100 84 -100 279v5q0 199 100 285
q99 86 326 85q214 -1 313 -74q102 -76 102 -245v-5h-293z" />
    <glyph glyph-name="ccedilla" unicode="&#xe7;" horiz-adv-x="901" 
d="M578 396v5q0 106 -122 104q-68 -1 -96 -35q-28 -35 -28 -119v-5q0 -83 28 -117q29 -35 96 -34q121 2 121 100v5h294v-5q0 -159 -92 -235q-90 -75 -282 -80l-25 -35q128 0 128 -122q0 -123 -154 -123h-144v94h75q36 0 36 29q0 28 -36 28h-65v75l39 60q-170 19 -245 103
q-76 84 -76 256v5q0 199 100 285q99 86 326 85q214 -1 313 -74q102 -76 102 -245v-5h-293z" />
    <glyph glyph-name="cdotaccent" unicode="&#x10b;" horiz-adv-x="901" 
d="M319 771q-37 27 -37 84q0 111 169 111t169 -111q0 -57 -36 -84q-41 -30 -133 -30t-132 30zM130 66q-100 84 -100 279v5q0 199 100 285q99 86 326 85q214 -1 313 -74q102 -76 102 -245v-5h-293v5q0 106 -122 104q-68 -1 -96 -35q-28 -35 -28 -119v-5q0 -83 28 -117
q29 -35 96 -34q121 2 121 100v5h294v-5q0 -167 -102 -243q-100 -74 -313 -72q-228 2 -326 86z" />
    <glyph glyph-name="d" unicode="d" horiz-adv-x="905" 
d="M432 700q238 0 341 -82q102 -82 102 -268v-5q0 -182 -102 -262q-104 -83 -341 -83h-382v700h382zM573 351q0 72 -31 105q-34 34 -110 34h-93v-278h93q76 0 110 33q31 32 31 101v5z" />
    <glyph glyph-name="eth" unicode="&#xf0;" horiz-adv-x="869" 
d="M432 700q238 0 341 -82q102 -82 102 -268v-5q0 -182 -102 -262q-104 -83 -341 -83h-382v263h-60v175h60v262h382zM573 351q0 72 -31 105q-34 34 -110 34h-93v-52h104v-175h-104v-51h93q76 0 110 33q31 32 31 101v5z" />
    <glyph glyph-name="dcaron" unicode="&#x10f;" horiz-adv-x="905" 
d="M299 756l-128 194h200l63 -66l63 66h200l-128 -194h-270zM432 700q238 0 341 -82q102 -82 102 -268v-5q0 -182 -102 -262q-104 -83 -341 -83h-382v700h382zM573 351q0 72 -31 105q-34 34 -110 34h-93v-278h93q76 0 110 33q31 32 31 101v5z" />
    <glyph glyph-name="dcroat" unicode="&#x111;" horiz-adv-x="869" 
d="M432 700q238 0 341 -82q102 -82 102 -268v-5q0 -182 -102 -262q-104 -83 -341 -83h-382v263h-60v175h60v262h382zM573 351q0 72 -31 105q-34 34 -110 34h-93v-52h104v-175h-104v-51h93q76 0 110 33q31 32 31 101v5z" />
    <glyph glyph-name="e" unicode="e" horiz-adv-x="913" 
d="M883 421v-114h-550q6 -68 37 -95q32 -28 102 -27q53 1 85 20t32 50v5h294v-5q0 -279 -421 -275q-226 2 -328 86q-104 86 -104 279v5q0 194 101 281q102 90 331 89q421 -1 421 -299zM598 419v2q0 96 -126 94q-63 -2 -94 -22q-31 -22 -41 -74h261z" />
    <glyph glyph-name="eacute" unicode="&#xe9;" horiz-adv-x="913" 
d="M642 756h-370v128l370 86v-214zM883 421v-114h-550q6 -68 37 -95q32 -28 102 -27q53 1 85 20t32 50v5h294v-5q0 -279 -421 -275q-226 2 -328 86q-104 86 -104 279v5q0 194 101 281q102 90 331 89q421 -1 421 -299zM598 419v2q0 96 -126 94q-63 -2 -94 -22
q-31 -22 -41 -74h261z" />
    <glyph glyph-name="ecaron" unicode="&#x11b;" horiz-adv-x="913" 
d="M322 756l-128 194h200l63 -66l63 66h200l-128 -194h-270zM883 421v-114h-550q6 -68 37 -95q32 -28 102 -27q53 1 85 20t32 50v5h294v-5q0 -279 -421 -275q-226 2 -328 86q-104 86 -104 279v5q0 194 101 281q102 90 331 89q421 -1 421 -299zM598 419v2q0 96 -126 94
q-63 -2 -94 -22q-31 -22 -41 -74h261z" />
    <glyph glyph-name="ecircumflex" unicode="&#xea;" horiz-adv-x="913" 
d="M394 756h-200l128 194h270l128 -194h-200l-63 66zM883 421v-114h-550q6 -68 37 -95q32 -28 102 -27q53 1 85 20t32 50v5h294v-5q0 -279 -421 -275q-226 2 -328 86q-104 86 -104 279v5q0 194 101 281q102 90 331 89q421 -1 421 -299zM598 419v2q0 96 -126 94
q-63 -2 -94 -22q-31 -22 -41 -74h261z" />
    <glyph glyph-name="edieresis" unicode="&#xeb;" horiz-adv-x="913" 
d="M429 756h-251v194h251v-194zM735 756h-251v194h251v-194zM883 421v-114h-550q6 -68 37 -95q32 -28 102 -27q53 1 85 20t32 50v5h294v-5q0 -279 -421 -275q-226 2 -328 86q-104 86 -104 279v5q0 194 101 281q102 90 331 89q421 -1 421 -299zM598 419v2q0 96 -126 94
q-63 -2 -94 -22q-31 -22 -41 -74h261z" />
    <glyph glyph-name="edotaccent" unicode="&#x117;" horiz-adv-x="913" 
d="M325 771q-37 27 -37 84q0 111 169 111t169 -111q0 -57 -36 -84q-41 -30 -133 -30t-132 30zM883 421v-114h-550q6 -68 37 -95q32 -28 102 -27q53 1 85 20t32 50v5h294v-5q0 -279 -421 -275q-226 2 -328 86q-104 86 -104 279v5q0 194 101 281q102 90 331 89
q421 -1 421 -299zM598 419v2q0 96 -126 94q-63 -2 -94 -22q-31 -22 -41 -74h261z" />
    <glyph glyph-name="egrave" unicode="&#xe8;" horiz-adv-x="913" 
d="M642 756h-370v214l370 -86v-128zM883 421v-114h-550q6 -68 37 -95q32 -28 102 -27q53 1 85 20t32 50v5h294v-5q0 -279 -421 -275q-226 2 -328 86q-104 86 -104 279v5q0 194 101 281q102 90 331 89q421 -1 421 -299zM598 419v2q0 96 -126 94q-63 -2 -94 -22
q-31 -22 -41 -74h261z" />
    <glyph glyph-name="emacron" unicode="&#x113;" horiz-adv-x="913" 
d="M695 775h-476v161h476v-161zM883 421v-114h-550q6 -68 37 -95q32 -28 102 -27q53 1 85 20t32 50v5h294v-5q0 -279 -421 -275q-226 2 -328 86q-104 86 -104 279v5q0 194 101 281q102 90 331 89q421 -1 421 -299zM598 419v2q0 96 -126 94q-63 -2 -94 -22q-31 -22 -41 -74
h261z" />
    <glyph glyph-name="eogonek" unicode="&#x119;" horiz-adv-x="913" 
d="M883 421v-114h-550q6 -68 37 -95q32 -28 102 -27q53 1 85 20t32 50v5h294v-5q0 -193 -197 -250q-72 -28 -75 -99q-1 -29 13 -49q15 -21 41 -21h12v-126h-81q-123 0 -155 92q-30 88 43 178h-22q-226 2 -328 86q-104 86 -104 279v5q0 194 101 281q102 90 331 89
q421 -1 421 -299zM598 419v2q0 96 -126 94q-63 -2 -94 -22q-31 -22 -41 -74h261z" />
    <glyph glyph-name="f" unicode="f" horiz-adv-x="763" 
d="M350 516v-109h359v-184h-359v-223h-300v700h687v-184h-387z" />
    <glyph glyph-name="g" unicode="g" horiz-adv-x="901" 
d="M578 426v5q0 32 -29 53q-31 22 -85 21q-69 -1 -100 -35q-32 -37 -32 -119v-5q0 -90 31 -126t106 -35q95 1 118 49h-116v126h400v-65q0 -167 -102 -243q-100 -74 -313 -72q-228 2 -326 86q-100 84 -100 279v5q0 199 100 285q99 86 326 85q212 -1 313 -70q102 -71 102 -219
v-5h-293z" />
    <glyph glyph-name="gbreve" unicode="&#x11f;" horiz-adv-x="901" 
d="M217 929v21h169v-16q0 -21 16 -34q18 -15 49 -15q65 0 65 49v16h169v-21q0 -183 -233 -183q-235 0 -235 183zM578 426v5q0 32 -29 53q-31 22 -85 21q-69 -1 -100 -35q-32 -37 -32 -119v-5q0 -90 31 -126t106 -35q95 1 118 49h-116v126h400v-65q0 -167 -102 -243
q-100 -74 -313 -72q-228 2 -326 86q-100 84 -100 279v5q0 199 100 285q99 86 326 85q212 -1 313 -70q102 -71 102 -219v-5h-293z" />
    <glyph glyph-name="uni0123" unicode="&#x123;" horiz-adv-x="901" 
d="M578 426v5q0 32 -29 53q-31 22 -85 21q-69 -1 -100 -35q-32 -37 -32 -119v-5q0 -90 31 -126t106 -35q95 1 118 49h-116v126h400v-65q0 -167 -102 -243q-100 -74 -313 -72q-228 2 -326 86q-100 84 -100 279v5q0 199 100 285q99 86 326 85q212 -1 313 -70q102 -71 102 -219
v-5h-293zM341 -60h220v-136q0 -124 -220 -124v89q95 0 95 27h-95v144z" />
    <glyph glyph-name="gdotaccent" unicode="&#x121;" horiz-adv-x="901" 
d="M319 771q-37 27 -37 84q0 111 169 111t169 -111q0 -57 -36 -84q-41 -30 -133 -30t-132 30zM578 426v5q0 32 -29 53q-31 22 -85 21q-69 -1 -100 -35q-32 -37 -32 -119v-5q0 -90 31 -126t106 -35q95 1 118 49h-116v126h400v-65q0 -167 -102 -243q-100 -74 -313 -72
q-228 2 -326 86q-100 84 -100 279v5q0 199 100 285q99 86 326 85q212 -1 313 -70q102 -71 102 -219v-5h-293z" />
    <glyph glyph-name="h" unicode="h" horiz-adv-x="930" 
d="M880 700v-700h-300v255h-230v-255h-300v700h300v-245h230v245h300z" />
    <glyph glyph-name="hbar" unicode="&#x127;" horiz-adv-x="930" 
d="M940 516h-60v-516h-300v255h-230v-255h-300v516h-60v130h60v54h300v-54h230v54h300v-54h60v-130zM580 516h-230v-61h230v61z" />
    <glyph glyph-name="i" unicode="i" horiz-adv-x="400" 
d="M50 700h300v-700h-300v700z" />
    <glyph glyph-name="dotlessi" unicode="&#x131;" horiz-adv-x="400" 
d="M50 700h300v-700h-300v700z" />
    <glyph glyph-name="iacute" unicode="&#xed;" horiz-adv-x="400" 
d="M385 756h-370v128l370 86v-214zM50 700h300v-700h-300v700z" />
    <glyph glyph-name="icircumflex" unicode="&#xee;" horiz-adv-x="400" 
d="M137 756h-200l128 194h270l128 -194h-200l-63 66zM50 700h300v-700h-300v700z" />
    <glyph glyph-name="idieresis" unicode="&#xef;" horiz-adv-x="400" 
d="M-79 950h251v-194h-251v194zM227 950h251v-194h-251v194zM50 700h300v-700h-300v700z" />
    <glyph glyph-name="i.locl" horiz-adv-x="400" 
d="M68 771q-37 27 -37 84q0 111 169 111t169 -111q0 -57 -36 -84q-41 -30 -133 -30t-132 30zM50 700h300v-700h-300v700z" />
    <glyph glyph-name="igrave" unicode="&#xec;" horiz-adv-x="400" 
d="M385 884v-128h-370v214zM50 700h300v-700h-300v700z" />
    <glyph glyph-name="ij" unicode="&#x133;" horiz-adv-x="1252" 
d="M1202 299q0 -168 -95 -245q-94 -76 -294 -74q-201 2 -294 75q-95 75 -95 236v9h302v-8q0 -99 87 -97t87 97v209h-271v200h573v-402zM50 700h300v-700h-300v700z" />
    <glyph glyph-name="imacron" unicode="&#x12b;" horiz-adv-x="400" 
d="M-38 936h476v-161h-476v161zM50 700h300v-700h-300v700z" />
    <glyph glyph-name="iogonek" unicode="&#x12f;" horiz-adv-x="400" 
d="M350 0q-83 -22 -90 -99q-4 -31 11 -52q15 -23 42 -23h12v-126h-81q-67 0 -109 31q-39 28 -50 76q-10 46 9 98q20 53 66 95h-110v700h300v-700z" />
    <glyph glyph-name="itilde" unicode="&#x129;" horiz-adv-x="400" 
d="M-48 923q64 40 135 40q25 0 56 -6l29 -7l28 -7q76 -20 113 -20q81 0 135 40v-165q-60 -40 -135 -40q-37 0 -113 20l-28 7l-29 7q-31 6 -56 6q-78 0 -135 -40v165zM50 700h300v-700h-300v700z" />
    <glyph glyph-name="j" unicode="j" horiz-adv-x="852" 
d="M802 299q0 -168 -95 -245q-94 -76 -294 -74q-201 2 -294 75q-95 75 -95 236v9h302v-8q0 -99 87 -97t87 97v209h-271v200h573v-402z" />
    <glyph glyph-name="uni0237" unicode="&#x237;" horiz-adv-x="852" 
d="M802 299q0 -168 -95 -245q-94 -76 -294 -74q-201 2 -294 75q-95 75 -95 236v9h302v-8q0 -99 87 -97t87 97v209h-271v200h573v-402z" />
    <glyph glyph-name="glyph196" horiz-adv-x="852" 
d="M684 756h-370v128l370 86v-214zM802 299q0 -168 -95 -245q-94 -76 -294 -74q-201 2 -294 75q-95 75 -95 236v9h302v-8q0 -99 87 -97t87 97v209h-271v200h573v-402z" />
    <glyph glyph-name="k" unicode="k" horiz-adv-x="915" 
d="M741 229q47 -33 144 -33v-207q-58 -9 -107 -9q-142 0 -238 81q-91 76 -117 203q-44 -4 -73 -5v-259h-300v700h300v-236q119 12 168 66q48 53 48 168v2h300v-2q0 -262 -182 -362q11 -74 57 -107z" />
    <glyph glyph-name="uni0137" unicode="&#x137;" horiz-adv-x="915" 
d="M741 229q47 -33 144 -33v-207q-58 -9 -107 -9q-142 0 -238 81q-91 76 -117 203q-44 -4 -73 -5v-259h-300v700h300v-236q119 12 168 66q48 53 48 168v2h300v-2q0 -262 -182 -362q11 -74 57 -107zM378 -60h220v-136q0 -124 -220 -124v89q95 0 95 27h-95v144z" />
    <glyph glyph-name="kgreenlandic" unicode="&#x138;" horiz-adv-x="915" 
d="M741 229q47 -33 144 -33v-207q-58 -9 -107 -9q-142 0 -238 81q-91 76 -117 203q-44 -4 -73 -5v-259h-300v700h300v-236q119 12 168 66q48 53 48 168v2h300v-2q0 -262 -182 -362q11 -74 57 -107z" />
    <glyph glyph-name="l" unicode="l" horiz-adv-x="723" 
d="M713 204v-204h-663v700h300v-496h363z" />
    <glyph glyph-name="lacute" unicode="&#x13a;" horiz-adv-x="723" 
d="M387 756h-370v128l370 86v-214zM713 204v-204h-663v700h300v-496h363z" />
    <glyph glyph-name="lcaron" unicode="&#x13e;" horiz-adv-x="723" 
d="M713 204v-204h-663v700h300v-496h363zM684 532q0 -91 -53 -126t-191 -35v89q65 0 91 11q24 10 24 33h-115v196h244v-168z" />
    <glyph glyph-name="uni013C" unicode="&#x13c;" horiz-adv-x="723" 
d="M713 204v-204h-663v700h300v-496h363zM264 -60h220v-136q0 -124 -220 -124v89q95 0 95 27h-95v144z" />
    <glyph glyph-name="ldot" unicode="&#x140;" horiz-adv-x="739" 
d="M713 204v-204h-663v700h300v-496h363zM453 349q-31 30 -31 100t31 100q30 30 99 30q70 0 100 -30q31 -30 31 -100t-31 -100q-30 -30 -100 -30q-69 0 -99 30z" />
    <glyph glyph-name="lslash" unicode="&#x142;" horiz-adv-x="748" 
d="M713 204v-204h-663v256l-54 -21v143l54 21v301h300v-181l79 31v-143l-79 -31v-172h363z" />
    <glyph glyph-name="m" unicode="m" horiz-adv-x="1428" 
d="M1311 641q67 -72 67 -227v-414h-300v359q0 75 -27 107q-25 30 -81 31q-106 2 -106 -111v-386h-300v359q0 75 -27 107q-25 30 -81 31q-106 2 -106 -111v-386h-300v700h300v-88q85 103 235 102q198 -1 253 -139q37 65 103 101q69 39 158 38q144 -1 212 -73z" />
    <glyph glyph-name="n" unicode="n" horiz-adv-x="930" 
d="M812 641q68 -72 68 -227v-414h-300v359q0 75 -28 107q-26 30 -88 31q-114 2 -114 -111v-386h-300v700h300v-89q86 104 243 103q150 -1 219 -73z" />
    <glyph glyph-name="nacute" unicode="&#x144;" horiz-adv-x="930" 
d="M650 756h-370v128l370 86v-214zM812 641q68 -72 68 -227v-414h-300v359q0 75 -28 107q-26 30 -88 31q-114 2 -114 -111v-386h-300v700h300v-89q86 104 243 103q150 -1 219 -73z" />
    <glyph glyph-name="napostrophe" unicode="&#x149;" horiz-adv-x="930" 
d="M812 641q68 -72 68 -227v-414h-300v359q0 75 -28 107q-26 30 -88 31q-114 2 -114 -111v-386h-300v692q-55 -32 -165 -32v89q95 0 95 27h-95v144h220v-136q0 -53 -42 -84h287v-89q86 104 243 103q150 -1 219 -73z" />
    <glyph glyph-name="ncaron" unicode="&#x148;" horiz-adv-x="930" 
d="M330 756l-128 194h200l63 -66l63 66h200l-128 -194h-270zM812 641q68 -72 68 -227v-414h-300v359q0 75 -28 107q-26 30 -88 31q-114 2 -114 -111v-386h-300v700h300v-89q86 104 243 103q150 -1 219 -73z" />
    <glyph glyph-name="uni0146" unicode="&#x146;" horiz-adv-x="930" 
d="M812 641q68 -72 68 -227v-414h-300v359q0 75 -28 107q-26 30 -88 31q-114 2 -114 -111v-386h-300v700h300v-89q86 104 243 103q150 -1 219 -73zM355 -60h220v-136q0 -124 -220 -124v89q95 0 95 27h-95v144z" />
    <glyph glyph-name="eng" unicode="&#x14b;" horiz-adv-x="900" 
d="M795 632q75 -82 75 -280v-376q0 -276 -393 -276v215q50 -1 71 30q22 31 22 101v311q0 76 -28 107q-28 30 -93 31q-118 2 -118 -111v-384h-301v700h301v-71q78 85 217 83q174 -1 247 -80z" />
    <glyph glyph-name="ntilde" unicode="&#xf1;" horiz-adv-x="930" 
d="M465 778q-75 20 -113 20q-78 0 -135 -40v165q64 40 135 40q25 0 56 -6l29 -7l28 -7q76 -20 113 -20q81 0 135 40v-165q-60 -40 -135 -40q-37 0 -113 20zM812 641q68 -72 68 -227v-414h-300v359q0 75 -28 107q-26 30 -88 31q-114 2 -114 -111v-386h-300v700h300v-89
q86 104 243 103q150 -1 219 -73z" />
    <glyph glyph-name="o" unicode="o" horiz-adv-x="956" 
d="M133 66q-103 83 -103 279v5q0 200 103 285q103 86 345 85q243 -1 346 -86q102 -84 102 -284v-5q0 -197 -102 -281q-104 -86 -346 -84q-243 2 -345 86zM593 230q31 33 31 116v5q0 85 -31 119q-32 36 -115 35t-115 -35q-31 -34 -31 -119v-5q0 -84 31 -117q32 -35 115 -34
t115 35z" />
    <glyph glyph-name="oacute" unicode="&#xf3;" horiz-adv-x="956" 
d="M663 756h-370v128l370 86v-214zM133 66q-103 83 -103 279v5q0 200 103 285q103 86 345 85q243 -1 346 -86q102 -84 102 -284v-5q0 -197 -102 -281q-104 -86 -346 -84q-243 2 -345 86zM593 230q31 33 31 116v5q0 85 -31 119q-32 36 -115 35t-115 -35q-31 -34 -31 -119v-5
q0 -84 31 -117q32 -35 115 -34t115 35z" />
    <glyph glyph-name="ocircumflex" unicode="&#xf4;" horiz-adv-x="956" 
d="M415 756h-200l128 194h270l128 -194h-200l-63 66zM824 634q102 -84 102 -284v-5q0 -197 -102 -281q-104 -86 -346 -84q-243 2 -345 86q-103 83 -103 279v5q0 200 103 285q103 86 345 85q243 -1 346 -86zM624 351q0 85 -31 119q-32 36 -115 35t-115 -35q-31 -34 -31 -119
v-5q0 -84 31 -117q32 -35 115 -34t115 35q31 33 31 116v5z" />
    <glyph glyph-name="odieresis" unicode="&#xf6;" horiz-adv-x="956" 
d="M199 950h251v-194h-251v194zM505 950h251v-194h-251v194zM133 66q-103 83 -103 279v5q0 200 103 285q103 86 345 85q243 -1 346 -86q102 -84 102 -284v-5q0 -197 -102 -281q-104 -86 -346 -84q-243 2 -345 86zM593 230q31 33 31 116v5q0 85 -31 119q-32 36 -115 35
t-115 -35q-31 -34 -31 -119v-5q0 -84 31 -117q32 -35 115 -34t115 35z" />
    <glyph glyph-name="ograve" unicode="&#xf2;" horiz-adv-x="956" 
d="M663 884v-128h-370v214zM133 66q-103 83 -103 279v5q0 200 103 285q103 86 345 85q243 -1 346 -86q102 -84 102 -284v-5q0 -197 -102 -281q-104 -86 -346 -84q-243 2 -345 86zM593 230q31 33 31 116v5q0 85 -31 119q-32 36 -115 35t-115 -35q-31 -34 -31 -119v-5
q0 -84 31 -117q32 -35 115 -34t115 35z" />
    <glyph glyph-name="ohungarumlaut" unicode="&#x151;" horiz-adv-x="956" 
d="M240 960h251l-80 -204h-221zM546 960h251l-80 -204h-221zM133 66q-103 83 -103 279v5q0 200 103 285q103 86 345 85q243 -1 346 -86q102 -84 102 -284v-5q0 -197 -102 -281q-104 -86 -346 -84q-243 2 -345 86zM593 230q31 33 31 116v5q0 85 -31 119q-32 36 -115 35
t-115 -35q-31 -34 -31 -119v-5q0 -84 31 -117q32 -35 115 -34t115 35z" />
    <glyph glyph-name="omacron" unicode="&#x14d;" horiz-adv-x="956" 
d="M240 936h476v-161h-476v161zM133 66q-103 83 -103 279v5q0 200 103 285q103 86 345 85q243 -1 346 -86q102 -84 102 -284v-5q0 -197 -102 -281q-104 -86 -346 -84q-243 2 -345 86zM593 230q31 33 31 116v5q0 85 -31 119q-32 36 -115 35t-115 -35q-31 -34 -31 -119v-5
q0 -84 31 -117q32 -35 115 -34t115 35z" />
    <glyph glyph-name="uni01EB" unicode="&#x1eb;" horiz-adv-x="956" 
d="M824 634q102 -84 102 -284v-5q0 -141 -51 -222q-52 -84 -166 -118q-73 -27 -77 -99q-1 -29 13 -49q15 -21 41 -21h12v-126h-81q-123 0 -155 92q-30 88 43 178h-27q-243 2 -345 86q-103 83 -103 279v5q0 200 103 285q103 86 345 85q243 -1 346 -86zM593 230q31 33 31 116
v5q0 85 -31 119q-32 36 -115 35t-115 -35q-31 -34 -31 -119v-5q0 -84 31 -117q32 -35 115 -34t115 35z" />
    <glyph glyph-name="oslash" unicode="&#xf8;" horiz-adv-x="956" 
d="M824 634q102 -84 102 -284v-5q0 -197 -102 -281q-104 -86 -346 -84q-243 2 -345 86q-103 83 -103 279v5q0 200 103 285q103 86 345 85q243 -1 346 -86zM332 346q0 -17 2 -43l226 190q-28 12 -82 12q-83 -1 -115 -35q-31 -34 -31 -119v-5zM624 351q0 27 -3 46l-226 -190
q32 -12 83 -12q83 1 115 35q31 33 31 116v5z" />
    <glyph glyph-name="oslashacute" unicode="&#x1ff;" horiz-adv-x="956" 
d="M663 756h-370v128l370 86v-214zM824 634q102 -84 102 -284v-5q0 -197 -102 -281q-104 -86 -346 -84q-243 2 -345 86q-103 83 -103 279v5q0 200 103 285q103 86 345 85q243 -1 346 -86zM332 346q0 -17 2 -43l226 190q-28 12 -82 12q-83 -1 -115 -35q-31 -34 -31 -119v-5z
M624 351q0 27 -3 46l-226 -190q32 -12 83 -12q83 1 115 35q31 33 31 116v5z" />
    <glyph glyph-name="otilde" unicode="&#xf5;" horiz-adv-x="956" 
d="M230 923q64 40 135 40q38 0 113 -20l28 -7l29 -7q31 -6 56 -6q81 0 135 40v-165q-60 -40 -135 -40q-25 0 -56 6l-29 7l-28 7q-75 20 -113 20q-78 0 -135 -40v165zM133 66q-103 83 -103 279v5q0 200 103 285q103 86 345 85q243 -1 346 -86q102 -84 102 -284v-5
q0 -197 -102 -281q-104 -86 -346 -84q-243 2 -345 86zM593 230q31 33 31 116v5q0 85 -31 119q-32 36 -115 35t-115 -35q-31 -34 -31 -119v-5q0 -84 31 -117q32 -35 115 -34t115 35z" />
    <glyph glyph-name="oe" unicode="&#x153;" horiz-adv-x="1491" 
d="M1463 421v-114h-548v-5l-1 -5q8 -62 39 -88q32 -25 99 -24q53 1 85 20t32 50v5h294v-5q0 -279 -421 -275q-177 2 -275 52q-101 -54 -294 -52q-240 2 -341 86q-102 83 -102 279v5q0 200 102 285q102 86 341 85q189 0 291 -53q99 53 278 53q421 -1 421 -299zM1178 419v2
q0 96 -126 94q-63 -2 -94 -22q-31 -22 -41 -74h261zM584 230q30 33 30 116v5q0 85 -30 119q-32 36 -111 35q-80 -1 -111 -35q-30 -34 -30 -119v-5q0 -84 30 -117q32 -35 111 -34q80 1 111 35z" />
    <glyph glyph-name="p" unicode="p" horiz-adv-x="872" 
d="M525 699q167 0 244 -62q79 -63 79 -201v-4q0 -134 -79 -197q-78 -62 -244 -62h-185v-173h-290v700h290v-1h185zM549 437q0 64 -73 64h-136v-129h136q73 0 73 62v3z" />
    <glyph glyph-name="thorn" unicode="&#xfe;" horiz-adv-x="878" 
d="M525 614q167 0 244 -62q79 -63 79 -201v-4q0 -134 -79 -197q-78 -62 -244 -62h-185v-88h-290v700h290v-86h185zM549 352q0 64 -73 64h-136v-129h136q73 0 73 62v3z" />
    <glyph glyph-name="q" unicode="q" horiz-adv-x="956" 
d="M824 634q102 -84 102 -284v-5q0 -172 -77 -257q-78 -87 -255 -104q36 -37 173 -37v-200q-388 0 -405 239q-178 19 -255 104q-77 84 -77 255v5q0 200 103 285q103 86 345 85q243 -1 346 -86zM624 351q0 85 -31 119q-32 36 -115 35t-115 -35q-31 -34 -31 -119v-5
q0 -84 31 -117q32 -35 115 -34t115 35q31 33 31 116v5z" />
    <glyph glyph-name="r" unicode="r" horiz-adv-x="881" 
d="M858 196v-207q-58 -9 -107 -9q-130 0 -225 67q-88 63 -122 166h-64v-213h-290v700h290v-1h185q165 0 244 -59q79 -60 79 -184v-4q0 -173 -165 -220q50 -36 175 -36zM340 392h136q73 0 73 62v3q0 64 -73 64h-136v-129z" />
    <glyph glyph-name="racute" unicode="&#x155;" horiz-adv-x="881" 
d="M625 756h-370v128l370 86v-214zM858 196v-207q-58 -9 -107 -9q-130 0 -225 67q-88 63 -122 166h-64v-213h-290v700h290v-1h185q165 0 244 -59q79 -60 79 -184v-4q0 -173 -165 -220q50 -36 175 -36zM340 392h136q73 0 73 62v3q0 64 -73 64h-136v-129z" />
    <glyph glyph-name="rcaron" unicode="&#x159;" horiz-adv-x="881" 
d="M305 756l-128 194h200l63 -66l63 66h200l-128 -194h-270zM858 196v-207q-58 -9 -107 -9q-130 0 -225 67q-88 63 -122 166h-64v-213h-290v700h290v-1h185q165 0 244 -59q79 -60 79 -184v-4q0 -173 -165 -220q50 -36 175 -36zM340 392h136q73 0 73 62v3q0 64 -73 64h-136
v-129z" />
    <glyph glyph-name="uni0157" unicode="&#x157;" horiz-adv-x="881" 
d="M858 196v-207q-58 -9 -107 -9q-130 0 -225 67q-88 63 -122 166h-64v-213h-290v700h290v-1h185q165 0 244 -59q79 -60 79 -184v-4q0 -173 -165 -220q50 -36 175 -36zM340 392h136q73 0 73 62v3q0 64 -73 64h-136v-129zM330 -60h220v-136q0 -124 -220 -124v89q95 0 95 27
h-95v144z" />
    <glyph glyph-name="s" unicode="s" horiz-adv-x="847" 
d="M118 38q-94 58 -94 185v7h287v-7q0 -61 118 -61q101 0 101 43v6q0 37 -78 51q-24 5 -79 11l-45 4l-46 6q-114 17 -171 56q-78 52 -78 154v4q0 222 383 222q403 0 403 -246v-7h-296v8q0 63 -107 63q-90 0 -90 -42v-5q0 -37 78 -50q24 -5 79 -10l45 -4l47 -6
q113 -16 170 -55q78 -52 78 -156v-5q0 -111 -91 -165q-98 -58 -311 -58q-209 0 -303 57z" />
    <glyph glyph-name="sacute" unicode="&#x15b;" horiz-adv-x="847" 
d="M609 756h-370v128l370 86v-214zM118 38q-94 58 -94 185v7h287v-7q0 -61 118 -61q101 0 101 43v6q0 37 -78 51q-24 5 -79 11l-45 4l-46 6q-114 17 -171 56q-78 52 -78 154v4q0 222 383 222q403 0 403 -246v-7h-296v8q0 63 -107 63q-90 0 -90 -42v-5q0 -37 78 -50
q24 -5 79 -10l45 -4l47 -6q113 -16 170 -55q78 -52 78 -156v-5q0 -111 -91 -165q-98 -58 -311 -58q-209 0 -303 57z" />
    <glyph glyph-name="scaron" unicode="&#x161;" horiz-adv-x="847" 
d="M289 756l-128 194h200l63 -66l63 66h200l-128 -194h-270zM326 490q0 -37 78 -50q24 -5 79 -10l45 -4l47 -6q113 -16 170 -55q78 -52 78 -156v-5q0 -111 -91 -165q-98 -58 -311 -58q-209 0 -303 57q-94 58 -94 185v7h287v-7q0 -61 118 -61q101 0 101 43v6q0 37 -78 51
q-24 5 -79 11l-45 4l-46 6q-114 17 -171 56q-78 52 -78 154v4q0 222 383 222q403 0 403 -246v-7h-296v8q0 63 -107 63q-90 0 -90 -42v-5z" />
    <glyph glyph-name="scedilla" unicode="&#x15f;" horiz-adv-x="847" 
d="M326 490q0 -37 78 -50q24 -5 79 -10l45 -4l47 -6q113 -16 170 -55q78 -52 78 -156v-5q0 -198 -310 -220l-28 -39q128 0 128 -122q0 -123 -154 -123h-144v94h75q36 0 36 29q0 28 -36 28h-65v75l37 56q-177 7 -257 65q-81 58 -81 176v7h287v-7q0 -61 118 -61q101 0 101 43
v6q0 37 -78 51q-24 5 -79 11l-45 4l-46 6q-114 17 -171 56q-78 52 -78 154v4q0 222 383 222q403 0 403 -246v-7h-296v8q0 63 -107 63q-90 0 -90 -42v-5z" />
    <glyph glyph-name="uni0219" unicode="&#x219;" horiz-adv-x="847" 
d="M118 38q-94 58 -94 185v7h287v-7q0 -61 118 -61q101 0 101 43v6q0 37 -78 51q-24 5 -79 11l-45 4l-46 6q-114 17 -171 56q-78 52 -78 154v4q0 222 383 222q403 0 403 -246v-7h-296v8q0 63 -107 63q-90 0 -90 -42v-5q0 -37 78 -50q24 -5 79 -10l45 -4l47 -6
q113 -16 170 -55q78 -52 78 -156v-5q0 -111 -91 -165q-98 -58 -311 -58q-209 0 -303 57zM354 -231q95 0 95 27h-95v144h220v-136q0 -124 -220 -124v89z" />
    <glyph glyph-name="germandbls" unicode="&#xdf;" horiz-adv-x="859" 
d="M806 334q35 -47 35 -130v-3q0 -201 -282 -201h-132v166h63q59 0 59 56v3q0 55 -59 55h-63v133l93 61q0 63 -79 63q-91 0 -91 -100v-437h-300v437q0 129 89 202q99 80 294 80q177 0 275 -65t98 -181l-110 -73q76 -19 110 -66z" />
    <glyph glyph-name="t" unicode="t" horiz-adv-x="803" 
d="M783 496h-222v-496h-300v496h-241v204h763v-204z" />
    <glyph glyph-name="tbar" unicode="&#x167;" horiz-adv-x="803" 
d="M561 496v-138h100v-150h-100v-208h-300v208h-100v150h100v138h-241v204h763v-204h-222z" />
    <glyph glyph-name="tcaron" unicode="&#x165;" horiz-adv-x="803" 
d="M267 756l-128 194h200l63 -66l63 66h200l-128 -194h-270zM783 496h-222v-496h-300v496h-241v204h763v-204z" />
    <glyph glyph-name="uni0163" unicode="&#x163;" horiz-adv-x="803" 
d="M783 496h-222v-496h-99l-39 -55q128 0 128 -122q0 -123 -154 -123h-144v94h75q36 0 36 29q0 28 -36 28h-65v75l49 74h-51v496h-241v204h763v-204z" />
    <glyph glyph-name="uni021B" unicode="&#x21b;" horiz-adv-x="803" 
d="M783 496h-222v-496h-300v496h-241v204h763v-204zM292 -60h220v-136q0 -124 -220 -124v89q95 0 95 27h-95v144z" />
    <glyph glyph-name="u" unicode="u" horiz-adv-x="924" 
d="M874 700v-700h-300v88q-87 -103 -240 -102q-148 1 -216 73t-68 227v414h300v-359q0 -75 27 -107q26 -30 86 -31q111 -2 111 111v386h300z" />
    <glyph glyph-name="uacute" unicode="&#xfa;" horiz-adv-x="924" 
d="M647 756h-370v128l370 86v-214zM874 700v-700h-300v88q-87 -103 -240 -102q-148 1 -216 73t-68 227v414h300v-359q0 -75 27 -107q26 -30 86 -31q111 -2 111 111v386h300z" />
    <glyph glyph-name="ucircumflex" unicode="&#xfb;" horiz-adv-x="924" 
d="M399 756h-200l128 194h270l128 -194h-200l-63 66zM874 700v-700h-300v88q-87 -103 -240 -102q-148 1 -216 73t-68 227v414h300v-359q0 -75 27 -107q26 -30 86 -31q111 -2 111 111v386h300z" />
    <glyph glyph-name="udieresis" unicode="&#xfc;" horiz-adv-x="924" 
d="M434 756h-251v194h251v-194zM740 756h-251v194h251v-194zM874 700v-700h-300v88q-87 -103 -240 -102q-148 1 -216 73t-68 227v414h300v-359q0 -75 27 -107q26 -30 86 -31q111 -2 111 111v386h300z" />
    <glyph glyph-name="ugrave" unicode="&#xf9;" horiz-adv-x="924" 
d="M647 756h-370v214l370 -86v-128zM874 700v-700h-300v88q-87 -103 -240 -102q-148 1 -216 73t-68 227v414h300v-359q0 -75 27 -107q26 -30 86 -31q111 -2 111 111v386h300z" />
    <glyph glyph-name="uhungarumlaut" unicode="&#x171;" horiz-adv-x="924" 
d="M395 756h-221l50 204h251zM701 756h-221l50 204h251zM874 700v-700h-300v88q-87 -103 -240 -102q-148 1 -216 73t-68 227v414h300v-359q0 -75 27 -107q26 -30 86 -31q111 -2 111 111v386h300z" />
    <glyph glyph-name="umacron" unicode="&#x16b;" horiz-adv-x="924" 
d="M700 775h-476v161h476v-161zM874 700v-700h-300v88q-87 -103 -240 -102q-148 1 -216 73t-68 227v414h300v-359q0 -75 27 -107q26 -30 86 -31q111 -2 111 111v386h300z" />
    <glyph glyph-name="uogonek" unicode="&#x173;" horiz-adv-x="924" 
d="M874 0q-83 -22 -90 -99q-4 -31 11 -52q15 -23 42 -23h12v-126h-81q-67 0 -109 31q-39 28 -50 76q-10 46 9 98q20 53 66 95h-110v88q-87 -103 -240 -102q-148 1 -216 73t-68 227v414h300v-359q0 -75 27 -107q26 -30 86 -31q111 -2 111 111v386h300v-700z" />
    <glyph glyph-name="uring" unicode="&#x16f;" horiz-adv-x="924" 
d="M874 700v-700h-300v88q-87 -103 -240 -102q-148 1 -216 73t-68 227v414h242q-17 39 -17 87q0 82 47 129q49 50 140 50t140 -50q47 -47 47 -129q0 -48 -17 -87h242zM406 787q0 -55 56 -55q54 0 54 55q0 52 -54 52q-56 0 -56 -52zM574 314v319q-45 -28 -112 -28t-112 28
v-292q0 -75 27 -107q26 -30 86 -31q111 -2 111 111z" />
    <glyph glyph-name="utilde" unicode="&#x169;" horiz-adv-x="924" 
d="M519 764l-29 7l-28 7q-75 20 -113 20q-78 0 -135 -40v165q64 40 135 40q25 0 56 -6l29 -7l28 -7q76 -20 113 -20q81 0 135 40v-165q-60 -40 -135 -40q-25 0 -56 6zM874 700v-700h-300v88q-87 -103 -240 -102q-148 1 -216 73t-68 227v414h300v-359q0 -75 27 -107
q26 -30 86 -31q111 -2 111 111v386h300z" />
    <glyph glyph-name="v" unicode="v" horiz-adv-x="878" 
d="M0 700h299l109 -365q10 -32 17 -55q9 -34 14 -56h3q4 21 15 56l8 29q6 19 8 26l111 365h294l-291 -700h-300z" />
    <glyph glyph-name="w" unicode="w" horiz-adv-x="1241" 
d="M1241 700l-222 -700h-297l-79 219q-6 17 -13 40l-5 19l-3 9l-2 8h-3q-9 -39 -22 -76l-76 -219h-297l-222 700h283l113 -456h2l106 362l-34 94h239l134 -456h2l113 456h283z" />
    <glyph glyph-name="wacute" unicode="&#x1e83;" horiz-adv-x="1241" 
d="M794 766h-370v128l370 86v-214zM1241 700l-222 -700h-297l-79 219q-6 17 -13 40l-5 19l-3 9l-2 8h-3q-9 -39 -22 -76l-76 -219h-297l-222 700h283l113 -456h2l106 362l-34 94h239l134 -456h2l113 456h283z" />
    <glyph glyph-name="wcircumflex" unicode="&#x175;" horiz-adv-x="1241" 
d="M546 766h-200l128 194h270l128 -194h-200l-63 66zM1241 700l-222 -700h-297l-79 219q-6 17 -13 40l-5 19l-3 9l-2 8h-3q-9 -39 -22 -76l-76 -219h-297l-222 700h283l113 -456h2l106 362l-34 94h239l134 -456h2l113 456h283z" />
    <glyph glyph-name="wdieresis" unicode="&#x1e85;" horiz-adv-x="1241" 
d="M581 766h-251v194h251v-194zM887 766h-251v194h251v-194zM1241 700l-222 -700h-297l-79 219q-6 17 -13 40l-5 19l-3 9l-2 8h-3q-9 -39 -22 -76l-76 -219h-297l-222 700h283l113 -456h2l106 362l-34 94h239l134 -456h2l113 456h283z" />
    <glyph glyph-name="wgrave" unicode="&#x1e81;" horiz-adv-x="1241" 
d="M794 766h-370v214l370 -86v-128zM1241 700l-222 -700h-297l-79 219q-6 17 -13 40l-5 19l-3 9l-2 8h-3q-9 -39 -22 -76l-76 -219h-297l-222 700h283l113 -456h2l106 362l-34 94h239l134 -456h2l113 456h283z" />
    <glyph glyph-name="x" unicode="x" horiz-adv-x="926" 
d="M876 121v-121h-302v130q0 118 -109 121h-2q-111 1 -111 -121v-130h-302v121q0 146 119 241q-109 94 -109 234v105h302v-124q0 -113 101 -111h1q100 2 100 111v124h302v-105q0 -139 -107 -234q117 -96 117 -241z" />
    <glyph glyph-name="y" unicode="y" horiz-adv-x="924" 
d="M874 700v-362q0 -358 -490 -358q-173 0 -277 9v214l172 2q180 2 241 37q55 32 54 122q-86 -97 -240 -96q-149 1 -216 68q-68 68 -68 222v142h300v-87q0 -75 27 -107q26 -30 86 -31q111 -2 111 111v114h300z" />
    <glyph glyph-name="yacute" unicode="&#xfd;" horiz-adv-x="924" 
d="M647 756h-370v128l370 86v-214zM874 700v-362q0 -358 -490 -358q-173 0 -277 9v214l172 2q180 2 241 37q55 32 54 122q-86 -97 -240 -96q-149 1 -216 68q-68 68 -68 222v142h300v-87q0 -75 27 -107q26 -30 86 -31q111 -2 111 111v114h300z" />
    <glyph glyph-name="ycircumflex" unicode="&#x177;" horiz-adv-x="924" 
d="M399 756h-200l128 194h270l128 -194h-200l-63 66zM874 700v-362q0 -358 -490 -358q-173 0 -277 9v214l172 2q180 2 241 37q55 32 54 122q-86 -97 -240 -96q-149 1 -216 68q-68 68 -68 222v142h300v-87q0 -75 27 -107q26 -30 86 -31q111 -2 111 111v114h300z" />
    <glyph glyph-name="ydieresis" unicode="&#xff;" horiz-adv-x="924" 
d="M434 756h-251v194h251v-194zM740 756h-251v194h251v-194zM874 700v-362q0 -358 -490 -358q-173 0 -277 9v214l172 2q180 2 241 37q55 32 54 122q-86 -97 -240 -96q-149 1 -216 68q-68 68 -68 222v142h300v-87q0 -75 27 -107q26 -30 86 -31q111 -2 111 111v114h300z" />
    <glyph glyph-name="ygrave" unicode="&#x1ef3;" horiz-adv-x="924" 
d="M647 756h-370v214l370 -86v-128zM874 700v-362q0 -358 -490 -358q-173 0 -277 9v214l172 2q180 2 241 37q55 32 54 122q-86 -97 -240 -96q-149 1 -216 68q-68 68 -68 222v142h300v-87q0 -75 27 -107q26 -30 86 -31q111 -2 111 111v114h300z" />
    <glyph glyph-name="uni1EF9" unicode="&#x1ef9;" horiz-adv-x="924" 
d="M519 764l-29 7l-28 7q-75 20 -113 20q-78 0 -135 -40v165q64 40 135 40q25 0 56 -6l29 -7l28 -7q76 -20 113 -20q81 0 135 40v-165q-60 -40 -135 -40q-25 0 -56 6zM874 700v-362q0 -358 -490 -358q-173 0 -277 9v214l172 2q180 2 241 37q55 32 54 122q-86 -97 -240 -96
q-149 1 -216 68q-68 68 -68 222v142h300v-87q0 -75 27 -107q26 -30 86 -31q111 -2 111 111v114h300z" />
    <glyph glyph-name="z" unicode="z" horiz-adv-x="822" 
d="M798 208v-208h-774v142l346 350h-331v208h744v-152l-334 -340h349z" />
    <glyph glyph-name="zacute" unicode="&#x17a;" horiz-adv-x="822" 
d="M596 756h-370v128l370 86v-214zM798 208v-208h-774v142l346 350h-331v208h744v-152l-334 -340h349z" />
    <glyph glyph-name="zcaron" unicode="&#x17e;" horiz-adv-x="822" 
d="M276 756l-128 194h200l63 -66l63 66h200l-128 -194h-270zM798 208v-208h-774v142l346 350h-331v208h744v-152l-334 -340h349z" />
    <glyph glyph-name="zdotaccent" unicode="&#x17c;" horiz-adv-x="822" 
d="M279 771q-37 27 -37 84q0 111 169 111t169 -111q0 -57 -36 -84q-41 -30 -133 -30t-132 30zM798 208v-208h-774v142l346 350h-331v208h744v-152l-334 -340h349z" />
    <glyph glyph-name="e.aalt" horiz-adv-x="890" 
d="M860 246v-2q0 -134 -96 -197q-100 -67 -320 -67q-219 0 -320 53q-98 51 -98 158v2q0 139 129 177q-113 25 -113 152v2q0 98 91 145q96 51 305 51q421 0 421 -264v-2h-300v2q0 60 -116 60q-68 0 -95 -13q-23 -12 -23 -37v-2q0 -26 24 -35q26 -10 99 -10h190v-138h-200
q-113 0 -113 -47v-2q0 -47 113 -48q123 -1 123 60v2h299z" />
    <glyph glyph-name="eacute.aalt" horiz-adv-x="890" 
d="M622 756h-370v128l370 86v-214zM860 246v-2q0 -134 -96 -197q-100 -67 -320 -67q-219 0 -320 53q-98 51 -98 158v2q0 139 129 177q-113 25 -113 152v2q0 98 91 145q96 51 305 51q421 0 421 -264v-2h-300v2q0 60 -116 60q-68 0 -95 -13q-23 -12 -23 -37v-2q0 -26 24 -35
q26 -10 99 -10h190v-138h-200q-113 0 -113 -47v-2q0 -47 113 -48q123 -1 123 60v2h299z" />
    <glyph glyph-name="ecircumflex.aalt" horiz-adv-x="890" 
d="M374 756h-200l128 194h270l128 -194h-200l-63 66zM860 246v-2q0 -134 -96 -197q-100 -67 -320 -67q-219 0 -320 53q-98 51 -98 158v2q0 139 129 177q-113 25 -113 152v2q0 98 91 145q96 51 305 51q421 0 421 -264v-2h-300v2q0 60 -116 60q-68 0 -95 -13q-23 -12 -23 -37
v-2q0 -26 24 -35q26 -10 99 -10h190v-138h-200q-113 0 -113 -47v-2q0 -47 113 -48q123 -1 123 60v2h299z" />
    <glyph glyph-name="edieresis.aalt" horiz-adv-x="890" 
d="M409 756h-251v194h251v-194zM715 756h-251v194h251v-194zM860 246v-2q0 -134 -96 -197q-100 -67 -320 -67q-219 0 -320 53q-98 51 -98 158v2q0 139 129 177q-113 25 -113 152v2q0 98 91 145q96 51 305 51q421 0 421 -264v-2h-300v2q0 60 -116 60q-68 0 -95 -13
q-23 -12 -23 -37v-2q0 -26 24 -35q26 -10 99 -10h190v-138h-200q-113 0 -113 -47v-2q0 -47 113 -48q123 -1 123 60v2h299z" />
    <glyph glyph-name="egrave.aalt" horiz-adv-x="890" 
d="M622 756h-370v214l370 -86v-128zM860 246v-2q0 -134 -96 -197q-100 -67 -320 -67q-219 0 -320 53q-98 51 -98 158v2q0 139 129 177q-113 25 -113 152v2q0 98 91 145q96 51 305 51q421 0 421 -264v-2h-300v2q0 60 -116 60q-68 0 -95 -13q-23 -12 -23 -37v-2q0 -26 24 -35
q26 -10 99 -10h190v-138h-200q-113 0 -113 -47v-2q0 -47 113 -48q123 -1 123 60v2h299z" />
    <glyph glyph-name="x.aalt" horiz-adv-x="873" 
d="M833 636q0 -331 -255 -333q83 -48 200 -48h55v-253q-26 -6 -66 -6q-193 0 -272 40q-95 49 -107 185q-48 -63 -48 -164v-57h-300v68q0 303 250 330q-86 53 -195 51h-55v253q27 5 66 5q178 0 266 -51q99 -56 112 -189q51 65 51 178v55h298v-64z" />
    <glyph glyph-name="K_A.dlig" horiz-adv-x="1696" 
d="M1696 215v-215h-795q-235 0 -353 62q-119 62 -147 200l-51 -3v-259h-300v700h300v-236q118 12 167 65q49 54 49 171h299q2 -150 -53 -244q-56 -95 -177 -143q43 -97 266 -98h795zM826 270l277 430h320l273 -430h-300l-26 55h-219l-25 -55h-300zM1317 435l-59 124
l-56 -124h115z" />
    <glyph glyph-name="K_Aacute.dlig" horiz-adv-x="1696" 
d="M1443 756h-370v128l370 86v-214zM1696 215v-215h-795q-235 0 -353 62q-119 62 -147 200l-51 -3v-259h-300v700h300v-236q118 12 167 65q49 54 49 171h299q2 -150 -53 -244q-56 -95 -177 -143q43 -97 266 -98h795zM1423 700l273 -430h-300l-26 55h-219l-25 -55h-300
l277 430h320zM1317 435l-59 124l-56 -124h115z" />
    <glyph glyph-name="K_Acircumflex.dlig" horiz-adv-x="1696" 
d="M1195 756h-200l128 194h270l128 -194h-200l-63 66zM1696 215v-215h-795q-235 0 -353 62q-119 62 -147 200l-51 -3v-259h-300v700h300v-236q118 12 167 65q49 54 49 171h299q2 -150 -53 -244q-56 -95 -177 -143q43 -97 266 -98h795zM1423 700l273 -430h-300l-26 55h-219
l-25 -55h-300l277 430h320zM1317 435l-59 124l-56 -124h115z" />
    <glyph glyph-name="K_Adieresis.dlig" horiz-adv-x="1696" 
d="M1230 756h-251v194h251v-194zM1536 756h-251v194h251v-194zM1696 215v-215h-795q-235 0 -353 62q-119 62 -147 200l-51 -3v-259h-300v700h300v-236q118 12 167 65q49 54 49 171h299q2 -150 -53 -244q-56 -95 -177 -143q43 -97 266 -98h795zM1423 700l273 -430h-300
l-26 55h-219l-25 -55h-300l277 430h320zM1317 435l-59 124l-56 -124h115z" />
    <glyph glyph-name="K_Aring.dlig" horiz-adv-x="1696" 
d="M1094 687q-23 43 -23 100q0 82 47 129q49 50 140 50t140 -50q47 -47 47 -129q0 -54 -19 -92l270 -425h-300l-26 55h-219l-25 -55h-300zM1202 787q0 -55 56 -55q54 0 54 55q0 52 -54 52q-56 0 -56 -52zM1696 215v-215h-795q-235 0 -353 62q-119 62 -147 200l-51 -3v-259
h-300v700h300v-236q118 12 167 65q49 54 49 171h299q2 -150 -53 -244q-56 -95 -177 -143q43 -97 266 -98h795zM1317 435l-59 124l-56 -124h115z" />
    <glyph glyph-name="K_Atilde.dlig" horiz-adv-x="1696" 
d="M1315 764l-29 7l-28 7q-75 20 -113 20q-78 0 -135 -40v165q64 40 135 40q38 0 113 -20l28 -7l29 -7q31 -6 56 -6q81 0 135 40v-165q-60 -40 -135 -40q-25 0 -56 6zM1696 215v-215h-795q-235 0 -353 62q-119 62 -147 200l-51 -3v-259h-300v700h300v-236q118 12 167 65
q49 54 49 171h299q2 -150 -53 -244q-56 -95 -177 -143q43 -97 266 -98h795zM1423 700l273 -430h-300l-26 55h-219l-25 -55h-300l277 430h320zM1317 435l-59 124l-56 -124h115z" />
    <glyph glyph-name="K_E.dlig" horiz-adv-x="1571" 
d="M1543 215v-215h-616q-237 0 -363 62q-130 63 -161 200l-53 -3v-259h-300v700h300v-236q118 12 167 65q49 54 49 171h299q3 -292 -227 -386q51 -97 289 -99h616zM1213 589v-49h290v-110h-290v-49h330v-111h-600v430h600v-111h-330z" />
    <glyph glyph-name="K_Eacute.dlig" horiz-adv-x="1571" 
d="M1432 756h-370v128l370 86v-214zM1543 215v-215h-616q-237 0 -363 62q-130 63 -161 200l-53 -3v-259h-300v700h300v-236q118 12 167 65q49 54 49 171h299q3 -292 -227 -386q51 -97 289 -99h616zM1213 589v-49h290v-110h-290v-49h330v-111h-600v430h600v-111h-330z" />
    <glyph glyph-name="K_Ecircumflex.dlig" horiz-adv-x="1571" 
d="M1184 756h-200l128 194h270l128 -194h-200l-63 66zM1543 215v-215h-616q-237 0 -363 62q-130 63 -161 200l-53 -3v-259h-300v700h300v-236q118 12 167 65q49 54 49 171h299q3 -292 -227 -386q51 -97 289 -99h616zM1213 589v-49h290v-110h-290v-49h330v-111h-600v430h600
v-111h-330z" />
    <glyph glyph-name="K_Edieresis.dlig" horiz-adv-x="1571" 
d="M1219 756h-251v194h251v-194zM1525 756h-251v194h251v-194zM1543 215v-215h-616q-237 0 -363 62q-130 63 -161 200l-53 -3v-259h-300v700h300v-236q118 12 167 65q49 54 49 171h299q3 -292 -227 -386q51 -97 289 -99h616zM1213 589v-49h290v-110h-290v-49h330v-111h-600
v430h600v-111h-330z" />
    <glyph glyph-name="K_Egrave.dlig" horiz-adv-x="1571" 
d="M1432 756h-370v214l370 -86v-128zM1543 215v-215h-616q-237 0 -363 62q-130 63 -161 200l-53 -3v-259h-300v700h300v-236q118 12 167 65q49 54 49 171h299q3 -292 -227 -386q51 -97 289 -99h616zM1213 589v-49h290v-110h-290v-49h330v-111h-600v430h600v-111h-330z" />
    <glyph glyph-name="K_I.dlig" horiz-adv-x="1302" 
d="M904 215h348v-215h-348q-235 0 -353 62q-119 62 -147 200l-51 -3v-259h-300l-3 700h303v-239q119 12 166 66q45 53 45 173h299q2 -150 -52 -243q-55 -96 -173 -144q43 -97 266 -98zM1252 700v-430h-300v430h300z" />
    <glyph glyph-name="K_Iacute.dlig" horiz-adv-x="1302" 
d="M1287 970v-214h-370v128zM904 215h348v-215h-348q-235 0 -353 62q-119 62 -147 200l-51 -3v-259h-300l-3 700h303v-239q119 12 166 66q45 53 45 173h299q2 -150 -52 -243q-55 -96 -173 -144q43 -97 266 -98zM952 700h300v-430h-300v430z" />
    <glyph glyph-name="K_Icircumflex.dlig" horiz-adv-x="1302" 
d="M1039 756h-200l128 194h270l128 -194h-200l-63 66zM904 215h348v-215h-348q-235 0 -353 62q-119 62 -147 200l-51 -3v-259h-300l-3 700h303v-239q119 12 166 66q45 53 45 173h299q2 -150 -52 -243q-55 -96 -173 -144q43 -97 266 -98zM952 700h300v-430h-300v430z" />
    <glyph glyph-name="K_Idieresis.dlig" horiz-adv-x="1302" 
d="M1074 756h-251v194h251v-194zM1380 950v-194h-251v194h251zM904 215h348v-215h-348q-235 0 -353 62q-119 62 -147 200l-51 -3v-259h-300l-3 700h303v-239q119 12 166 66q45 53 45 173h299q2 -150 -52 -243q-55 -96 -173 -144q43 -97 266 -98zM952 700h300v-430h-300v430z
" />
    <glyph glyph-name="K_Igrave.dlig" horiz-adv-x="1302" 
d="M1287 884v-128h-370v214zM904 215h348v-215h-348q-235 0 -353 62q-119 62 -147 200l-51 -3v-259h-300l-3 700h303v-239q119 12 166 66q45 53 45 173h299q2 -150 -52 -243q-55 -96 -173 -144q43 -97 266 -98zM952 700h300v-430h-300v430z" />
    <glyph glyph-name="K_O.dlig" horiz-adv-x="1784" 
d="M1655 667q99 -53 99 -171v-2q0 -116 -99 -168q-100 -53 -322 -52q-221 1 -320 54q-99 52 -99 167v4q0 117 99 169t321 52t321 -53zM904 215h850v-215h-850q-235 0 -353 62q-119 62 -147 200l-51 -3v-259h-300l-3 700h303v-239q119 12 166 66q45 53 45 173h299
q2 -150 -52 -243q-55 -96 -173 -144q43 -97 266 -98zM1454 495q0 44 -27 62t-93 18q-120 0 -120 -77v-4q0 -42 27 -58q27 -17 93 -17t93 16q27 17 27 58v2z" />
    <glyph glyph-name="K_Oacute.dlig" horiz-adv-x="1784" 
d="M1498 756h-370v128l370 86v-214zM1655 667q99 -53 99 -171v-2q0 -116 -99 -168q-100 -53 -322 -52q-221 1 -320 54q-99 52 -99 167v4q0 117 99 169t321 52t321 -53zM904 215h850v-215h-850q-235 0 -353 62q-119 62 -147 200l-51 -3v-259h-300l-3 700h303v-239
q119 12 166 66q45 53 45 173h299q2 -150 -52 -243q-55 -96 -173 -144q43 -97 266 -98zM1454 495q0 44 -27 62t-93 18q-120 0 -120 -77v-4q0 -42 27 -58q27 -17 93 -17t93 16q27 17 27 58v2z" />
    <glyph glyph-name="K_Ocircumflex.dlig" horiz-adv-x="1784" 
d="M1250 756h-200l128 194h270l128 -194h-200l-63 66zM1655 667q99 -53 99 -171v-2q0 -116 -99 -168q-100 -53 -322 -52q-221 1 -320 54q-99 52 -99 167v4q0 117 99 169t321 52t321 -53zM904 215h850v-215h-850q-235 0 -353 62q-119 62 -147 200l-51 -3v-259h-300l-3 700
h303v-239q119 12 166 66q45 53 45 173h299q2 -150 -52 -243q-55 -96 -173 -144q43 -97 266 -98zM1454 495q0 44 -27 62t-93 18q-120 0 -120 -77v-4q0 -42 27 -58q27 -17 93 -17t93 16q27 17 27 58v2z" />
    <glyph glyph-name="K_Odieresis.dlig" horiz-adv-x="1784" 
d="M1285 756h-251v194h251v-194zM1591 756h-251v194h251v-194zM1655 667q99 -53 99 -171v-2q0 -116 -99 -168q-100 -53 -322 -52q-221 1 -320 54q-99 52 -99 167v4q0 117 99 169t321 52t321 -53zM904 215h850v-215h-850q-235 0 -353 62q-119 62 -147 200l-51 -3v-259h-300
l-3 700h303v-239q119 12 166 66q45 53 45 173h299q2 -150 -52 -243q-55 -96 -173 -144q43 -97 266 -98zM1454 495q0 44 -27 62t-93 18q-120 0 -120 -77v-4q0 -42 27 -58q27 -17 93 -17t93 16q27 17 27 58v2z" />
    <glyph glyph-name="K_Ograve.dlig" horiz-adv-x="1784" 
d="M1498 756h-370v214l370 -86v-128zM1655 667q99 -53 99 -171v-2q0 -116 -99 -168q-100 -53 -322 -52q-221 1 -320 54q-99 52 -99 167v4q0 117 99 169t321 52t321 -53zM904 215h850v-215h-850q-235 0 -353 62q-119 62 -147 200l-51 -3v-259h-300l-3 700h303v-239
q119 12 166 66q45 53 45 173h299q2 -150 -52 -243q-55 -96 -173 -144q43 -97 266 -98zM1454 495q0 44 -27 62t-93 18q-120 0 -120 -77v-4q0 -42 27 -58q27 -17 93 -17t93 16q27 17 27 58v2z" />
    <glyph glyph-name="K_Otilde.dlig" horiz-adv-x="1784" 
d="M1370 764l-29 7l-28 7q-75 20 -113 20q-78 0 -135 -40v165q64 40 135 40q38 0 113 -20l28 -7l29 -7q31 -6 56 -6q81 0 135 40v-165q-60 -40 -135 -40q-25 0 -56 6zM1655 667q99 -53 99 -171v-2q0 -116 -99 -168q-100 -53 -322 -52q-221 1 -320 54q-99 52 -99 167v4
q0 117 99 169t321 52t321 -53zM904 215h850v-215h-850q-235 0 -353 62q-119 62 -147 200l-51 -3v-259h-300l-3 700h303v-239q119 12 166 66q45 53 45 173h299q2 -150 -52 -243q-55 -96 -173 -144q43 -97 266 -98zM1454 495q0 44 -27 62t-93 18q-120 0 -120 -77v-4
q0 -42 27 -58q27 -17 93 -17t93 16q27 17 27 58v2z" />
    <glyph glyph-name="K_U.dlig" horiz-adv-x="1820" 
d="M904 215h830v-215h-830q-235 0 -353 62q-119 62 -147 200l-51 -3v-259h-300l-3 700h303v-239q119 12 166 66q45 53 45 173h299q2 -150 -52 -243q-55 -96 -173 -144q43 -97 266 -98zM1770 700v-157q0 -145 -101 -209q-99 -62 -318 -60q-221 2 -320 63q-101 64 -101 206
v157h300v-127q0 -68 26 -95q26 -28 95 -29q68 -1 94 27q25 27 25 97v127h300z" />
    <glyph glyph-name="K_Uacute.dlig" horiz-adv-x="1820" 
d="M1535 756h-370v128l370 86v-214zM904 215h830v-215h-830q-235 0 -353 62q-119 62 -147 200l-51 -3v-259h-300l-3 700h303v-239q119 12 166 66q45 53 45 173h299q2 -150 -52 -243q-55 -96 -173 -144q43 -97 266 -98zM1770 700v-157q0 -145 -101 -209q-99 -62 -318 -60
q-221 2 -320 63q-101 64 -101 206v157h300v-127q0 -68 26 -95q26 -28 95 -29q68 -1 94 27q25 27 25 97v127h300z" />
    <glyph glyph-name="K_Ucircumflex.dlig" horiz-adv-x="1820" 
d="M1287 756h-200l128 194h270l128 -194h-200l-63 66zM904 215h830v-215h-830q-235 0 -353 62q-119 62 -147 200l-51 -3v-259h-300l-3 700h303v-239q119 12 166 66q45 53 45 173h299q2 -150 -52 -243q-55 -96 -173 -144q43 -97 266 -98zM1770 700v-157q0 -145 -101 -209
q-99 -62 -318 -60q-221 2 -320 63q-101 64 -101 206v157h300v-127q0 -68 26 -95q26 -28 95 -29q68 -1 94 27q25 27 25 97v127h300z" />
    <glyph glyph-name="K_Udieresis.dlig" horiz-adv-x="1820" 
d="M1322 756h-251v194h251v-194zM1628 756h-251v194h251v-194zM904 215h830v-215h-830q-235 0 -353 62q-119 62 -147 200l-51 -3v-259h-300l-3 700h303v-239q119 12 166 66q45 53 45 173h299q2 -150 -52 -243q-55 -96 -173 -144q43 -97 266 -98zM1770 700v-157
q0 -145 -101 -209q-99 -62 -318 -60q-221 2 -320 63q-101 64 -101 206v157h300v-127q0 -68 26 -95q26 -28 95 -29q68 -1 94 27q25 27 25 97v127h300z" />
    <glyph glyph-name="K_Ugrave.dlig" horiz-adv-x="1820" 
d="M1535 756h-370v214l370 -86v-128zM904 215h830v-215h-830q-235 0 -353 62q-119 62 -147 200l-51 -3v-259h-300l-3 700h303v-239q119 12 166 66q45 53 45 173h299q2 -150 -52 -243q-55 -96 -173 -144q43 -97 266 -98zM1770 700v-157q0 -145 -101 -209q-99 -62 -318 -60
q-221 2 -320 63q-101 64 -101 206v157h300v-127q0 -68 26 -95q26 -28 95 -29q68 -1 94 27q25 27 25 97v127h300z" />
    <glyph glyph-name="L_A.dlig" horiz-adv-x="1296" 
d="M1281 0h-1231v700h300v-496h931v-204zM711 270h-300l277 430h320l273 -430h-300l-26 55h-219zM902 435l-59 124l-56 -124h115z" />
    <glyph glyph-name="L_Aacute.dlig" horiz-adv-x="1296" 
d="M1043 756h-370v128l370 86v-214zM1281 0h-1231v700h300v-496h931v-204zM711 270h-300l277 430h320l273 -430h-300l-26 55h-219zM902 435l-59 124l-56 -124h115z" />
    <glyph glyph-name="L_Acircumflex.dlig" horiz-adv-x="1296" 
d="M795 756h-200l128 194h270l128 -194h-200l-63 66zM1281 0h-1231v700h300v-496h931v-204zM711 270h-300l277 430h320l273 -430h-300l-26 55h-219zM902 435l-59 124l-56 -124h115z" />
    <glyph glyph-name="L_Adieresis.dlig" horiz-adv-x="1296" 
d="M830 756h-251v194h251v-194zM1136 756h-251v194h251v-194zM1281 0h-1231v700h300v-496h931v-204zM711 270h-300l277 430h320l273 -430h-300l-26 55h-219zM902 435l-59 124l-56 -124h115z" />
    <glyph glyph-name="L_Agrave.dlig" horiz-adv-x="1296" 
d="M1043 756h-370v214l370 -86v-128zM1281 0h-1231v700h300v-496h931v-204zM711 270h-300l277 430h320l273 -430h-300l-26 55h-219zM902 435l-59 124l-56 -124h115z" />
    <glyph glyph-name="L_Atilde.dlig" horiz-adv-x="1296" 
d="M858 778q-75 20 -113 20q-78 0 -135 -40v165q64 40 135 40q25 0 56 -6l29 -7l28 -7q76 -20 113 -20q81 0 135 40v-165q-60 -40 -135 -40q-37 0 -113 20zM1281 0h-1231v700h300v-496h931v-204zM711 270h-300l277 430h320l273 -430h-300l-26 55h-219zM902 435l-59 124
l-56 -124h115z" />
    <glyph glyph-name="L_E.dlig" horiz-adv-x="1088" 
d="M1060 0h-1010v700h300v-496h710v-204zM730 589v-49h290v-110h-290v-49h330v-111h-610v430h610v-111h-330z" />
    <glyph glyph-name="L_Eacute.dlig" horiz-adv-x="1088" 
d="M920 756h-370v128l370 86v-214zM1060 0h-1010v700h300v-496h710v-204zM730 589v-49h290v-110h-290v-49h330v-111h-610v430h610v-111h-330z" />
    <glyph glyph-name="L_Ecircumflex.dlig" horiz-adv-x="1088" 
d="M672 756h-200l128 194h270l128 -194h-200l-63 66zM1060 0h-1010v700h300v-496h710v-204zM730 589v-49h290v-110h-290v-49h330v-111h-610v430h610v-111h-330z" />
    <glyph glyph-name="L_Edieresis.dlig" horiz-adv-x="1088" 
d="M707 756h-251v194h251v-194zM1013 756h-251v194h251v-194zM1060 0h-1010v700h300v-496h710v-204zM730 589v-49h290v-110h-290v-49h330v-111h-610v430h610v-111h-330z" />
    <glyph glyph-name="L_Egrave.dlig" horiz-adv-x="1088" 
d="M920 756h-370v214l370 -86v-128zM1060 0h-1010v700h300v-496h710v-204zM730 589v-49h290v-110h-290v-49h330v-111h-610v430h610v-111h-330z" />
    <glyph glyph-name="L_I.dlig" horiz-adv-x="800" 
d="M750 0h-700v700h300v-496h400v-204zM750 700v-430h-300v430h300z" />
    <glyph glyph-name="L_Iacute.dlig" horiz-adv-x="800" 
d="M786 970v-214h-370v128zM750 0h-700v700h300v-496h400v-204zM450 700h300v-430h-300v430z" />
    <glyph glyph-name="L_Icircumflex.dlig" horiz-adv-x="800" 
d="M538 756h-200l128 194h270l128 -194h-200l-63 66zM750 0h-700v700h300v-496h400v-204zM450 700h300v-430h-300v430z" />
    <glyph glyph-name="L_Idieresis.dlig" horiz-adv-x="800" 
d="M573 756h-251v194h251v-194zM879 950v-194h-251v194h251zM750 0h-700v700h300v-496h400v-204zM450 700h300v-430h-300v430z" />
    <glyph glyph-name="L_Igrave.dlig" horiz-adv-x="800" 
d="M786 884v-128h-370v214zM750 0h-700v700h300v-496h400v-204zM450 700h300v-430h-300v430z" />
    <glyph glyph-name="L_L.dlig" horiz-adv-x="874" 
d="M849 0h-799v700h300v-496h499v-204zM849 470v-200h-418v430h285v-230h133z" />
    <glyph glyph-name="L_O.dlig" horiz-adv-x="1300" 
d="M1171 667q99 -53 99 -174v-2q0 -118 -99 -171q-100 -53 -322 -52q-221 1 -320 54t-99 170v4q0 119 99 172q99 52 321 52t321 -53zM1260 0h-1210v700h300v-496h910v-204zM970 492q0 46 -27 65q-27 18 -93 18q-64 0 -92 -19q-28 -18 -28 -61v-4q0 -42 27 -59t93 -17
q65 0 93 17q27 17 27 58v2z" />
    <glyph glyph-name="L_Oacute.dlig" horiz-adv-x="1300" 
d="M1036 756h-370v128l370 86v-214zM1171 667q99 -53 99 -174v-2q0 -118 -99 -171q-100 -53 -322 -52q-221 1 -320 54t-99 170v4q0 119 99 172q99 52 321 52t321 -53zM1260 0h-1210v700h300v-496h910v-204zM970 492q0 46 -27 65q-27 18 -93 18q-64 0 -92 -19
q-28 -18 -28 -61v-4q0 -42 27 -59t93 -17q65 0 93 17q27 17 27 58v2z" />
    <glyph glyph-name="L_Ocircumflex.dlig" horiz-adv-x="1300" 
d="M788 756h-200l128 194h270l128 -194h-200l-63 66zM1171 667q99 -53 99 -174v-2q0 -118 -99 -171q-100 -53 -322 -52q-221 1 -320 54t-99 170v4q0 119 99 172q99 52 321 52t321 -53zM1260 0h-1210v700h300v-496h910v-204zM970 492q0 46 -27 65q-27 18 -93 18
q-64 0 -92 -19q-28 -18 -28 -61v-4q0 -42 27 -59t93 -17q65 0 93 17q27 17 27 58v2z" />
    <glyph glyph-name="L_Odieresis.dlig" horiz-adv-x="1300" 
d="M823 756h-251v194h251v-194zM1129 756h-251v194h251v-194zM1171 667q99 -53 99 -174v-2q0 -118 -99 -171q-100 -53 -322 -52q-221 1 -320 54t-99 170v4q0 119 99 172q99 52 321 52t321 -53zM1260 0h-1210v700h300v-496h910v-204zM970 492q0 46 -27 65q-27 18 -93 18
q-64 0 -92 -19q-28 -18 -28 -61v-4q0 -42 27 -59t93 -17q65 0 93 17q27 17 27 58v2z" />
    <glyph glyph-name="L_Ograve.dlig" horiz-adv-x="1300" 
d="M1036 756h-370v214l370 -86v-128zM1171 667q99 -53 99 -174v-2q0 -118 -99 -171q-100 -53 -322 -52q-221 1 -320 54t-99 170v4q0 119 99 172q99 52 321 52t321 -53zM1260 0h-1210v700h300v-496h910v-204zM970 492q0 46 -27 65q-27 18 -93 18q-64 0 -92 -19
q-28 -18 -28 -61v-4q0 -42 27 -59t93 -17q65 0 93 17q27 17 27 58v2z" />
    <glyph glyph-name="L_Otilde.dlig" horiz-adv-x="1300" 
d="M908 764l-29 7l-28 7q-75 20 -113 20q-78 0 -135 -40v165q64 40 135 40q25 0 56 -6l29 -7l28 -7q76 -20 113 -20q81 0 135 40v-165q-60 -40 -135 -40q-25 0 -56 6zM1171 667q99 -53 99 -174v-2q0 -118 -99 -171q-100 -53 -322 -52q-221 1 -320 54t-99 170v4q0 119 99 172
q99 52 321 52t321 -53zM1260 0h-1210v700h300v-496h910v-204zM970 492q0 46 -27 65q-27 18 -93 18q-64 0 -92 -19q-28 -18 -28 -61v-4q0 -42 27 -59t93 -17q65 0 93 17q27 17 27 58v2z" />
    <glyph glyph-name="L_U.dlig" horiz-adv-x="1319" 
d="M349 215h910v-215h-1209v700h299v-485zM1269 700v-157q0 -145 -100 -209q-97 -62 -309 -60q-214 2 -311 63q-100 64 -100 206v157h300v-127q0 -68 24 -95q25 -28 87 -29q61 -1 85 27t24 97v127h300z" />
    <glyph glyph-name="L_Uacute.dlig" horiz-adv-x="1319" 
d="M1045 756h-370v128l370 86v-214zM349 215h910v-215h-1209v700h299v-485zM1269 700v-157q0 -145 -100 -209q-97 -62 -309 -60q-214 2 -311 63q-100 64 -100 206v157h300v-127q0 -68 24 -95q25 -28 87 -29q61 -1 85 27t24 97v127h300z" />
    <glyph glyph-name="L_Ucircumflex.dlig" horiz-adv-x="1319" 
d="M797 756h-200l128 194h270l128 -194h-200l-63 66zM349 215h910v-215h-1209v700h299v-485zM1269 700v-157q0 -145 -100 -209q-97 -62 -309 -60q-214 2 -311 63q-100 64 -100 206v157h300v-127q0 -68 24 -95q25 -28 87 -29q61 -1 85 27t24 97v127h300z" />
    <glyph glyph-name="L_Udieresis.dlig" horiz-adv-x="1319" 
d="M832 756h-251v194h251v-194zM1138 756h-251v194h251v-194zM349 215h910v-215h-1209v700h299v-485zM1269 700v-157q0 -145 -100 -209q-97 -62 -309 -60q-214 2 -311 63q-100 64 -100 206v157h300v-127q0 -68 24 -95q25 -28 87 -29q61 -1 85 27t24 97v127h300z" />
    <glyph glyph-name="L_Ugrave.dlig" horiz-adv-x="1319" 
d="M1045 756h-370v214l370 -86v-128zM349 215h910v-215h-1209v700h299v-485zM1269 700v-157q0 -145 -100 -209q-97 -62 -309 -60q-214 2 -311 63q-100 64 -100 206v157h300v-127q0 -68 24 -95q25 -28 87 -29q61 -1 85 27t24 97v127h300z" />
    <glyph glyph-name="M_M.dlig" horiz-adv-x="1726" 
d="M50 700h301l149 -302q6 -12 15 -33q9 -22 10 -30h3q2 8 11 30q8 22 13 33l149 302h323l149 -302q6 -12 15 -33q9 -22 10 -30h3q2 8 11 30q8 22 13 33l149 302h302v-700h-280v152q0 121 10 182h-1l-145 -294h-121l-145 294h-2q11 -67 11 -182v-152h-280v152q0 115 11 182
h-2l-145 -294h-121l-145 294h-2q11 -67 11 -182v-152h-280v700z" />
    <glyph glyph-name="N_N.dlig" horiz-adv-x="1455" 
d="M1405 700v-700h-276l-264 349h-3q5 -36 10 -106q3 -62 3 -99v-144h-276l-264 349h-3q5 -36 10 -106q3 -62 3 -99v-144h-295v700h276l264 -349h3q-5 36 -9 106q-4 62 -4 99v144h276l264 -349h3q-5 36 -9 106q-4 62 -4 99v144h295z" />
    <glyph glyph-name="R_A.dlig" horiz-adv-x="1740" 
d="M1740 215v-215h-939q-178 0 -275 47q-105 51 -138 167h-48v-214h-290v700h475q165 0 244 -59q79 -60 79 -184v-4q0 -180 -179 -224q42 -14 132 -14h939zM1170 270h-300l277 430h320l273 -430h-300l-26 55h-219zM1361 435l-59 124l-56 -124h115zM340 393h136q73 0 73 62v3
q0 64 -73 64h-136v-129z" />
    <glyph glyph-name="R_Aacute.dlig" horiz-adv-x="1740" 
d="M1484 756h-370v128l370 86v-214zM1740 215v-215h-939q-178 0 -275 47q-105 51 -138 167h-48v-214h-290v700h475q165 0 244 -59q79 -60 79 -184v-4q0 -180 -179 -224q42 -14 132 -14h939zM1170 270h-300l277 430h320l273 -430h-300l-26 55h-219zM1361 435l-59 124
l-56 -124h115zM340 393h136q73 0 73 62v3q0 64 -73 64h-136v-129z" />
    <glyph glyph-name="R_Acircumflex.dlig" horiz-adv-x="1740" 
d="M1236 756h-200l128 194h270l128 -194h-200l-63 66zM1740 215v-215h-939q-178 0 -275 47q-105 51 -138 167h-48v-214h-290v700h475q165 0 244 -59q79 -60 79 -184v-4q0 -180 -179 -224q42 -14 132 -14h939zM1170 270h-300l277 430h320l273 -430h-300l-26 55h-219z
M1361 435l-59 124l-56 -124h115zM340 393h136q73 0 73 62v3q0 64 -73 64h-136v-129z" />
    <glyph glyph-name="R_Adieresis.dlig" horiz-adv-x="1740" 
d="M1271 756h-251v194h251v-194zM1577 756h-251v194h251v-194zM1740 215v-215h-939q-178 0 -275 47q-105 51 -138 167h-48v-214h-290v700h475q165 0 244 -59q79 -60 79 -184v-4q0 -180 -179 -224q42 -14 132 -14h939zM1170 270h-300l277 430h320l273 -430h-300l-26 55h-219z
M1361 435l-59 124l-56 -124h115zM340 393h136q73 0 73 62v3q0 64 -73 64h-136v-129z" />
    <glyph glyph-name="R_Agrave.dlig" horiz-adv-x="1740" 
d="M1484 756h-370v214l370 -86v-128zM1740 215v-215h-939q-178 0 -275 47q-105 51 -138 167h-48v-214h-290v700h475q165 0 244 -59q79 -60 79 -184v-4q0 -180 -179 -224q42 -14 132 -14h939zM1170 270h-300l277 430h320l273 -430h-300l-26 55h-219zM1361 435l-59 124
l-56 -124h115zM340 393h136q73 0 73 62v3q0 64 -73 64h-136v-129z" />
    <glyph glyph-name="R_Atilde.dlig" horiz-adv-x="1740" 
d="M1299 778q-75 20 -113 20q-78 0 -135 -40v165q64 40 135 40q38 0 113 -20q76 -20 113 -20q81 0 135 40v-165q-60 -40 -135 -40q-37 0 -113 20zM1740 215v-215h-939q-178 0 -275 47q-105 51 -138 167h-48v-214h-290v700h475q165 0 244 -59q79 -60 79 -184v-4
q0 -180 -179 -224q42 -14 132 -14h939zM1170 270h-300l277 430h320l273 -430h-300l-26 55h-219zM1361 435l-59 124l-56 -124h115zM340 393h136q73 0 73 62v3q0 64 -73 64h-136v-129z" />
    <glyph glyph-name="R_E.dlig" horiz-adv-x="1564" 
d="M1528 215v-215h-727q-178 0 -275 47q-105 51 -138 167h-48v-214h-290v700h475q165 0 244 -59q79 -60 79 -184v-4q0 -180 -179 -224q42 -14 132 -14h727zM1198 589v-49h290v-110h-290v-49h330v-111h-610v430h610v-111h-330zM340 393h136q73 0 73 62v3q0 64 -73 64h-136
v-129z" />
    <glyph glyph-name="R_Eacute.dlig" horiz-adv-x="1564" 
d="M1415 756h-370v128l370 86v-214zM1528 215v-215h-727q-178 0 -275 47q-105 51 -138 167h-48v-214h-290v700h475q165 0 244 -59q79 -60 79 -184v-4q0 -180 -179 -224q42 -14 132 -14h727zM1198 589v-49h290v-110h-290v-49h330v-111h-610v430h610v-111h-330zM340 393h136
q73 0 73 62v3q0 64 -73 64h-136v-129z" />
    <glyph glyph-name="R_Ecircumflex.dlig" horiz-adv-x="1564" 
d="M1167 756h-200l128 194h270l128 -194h-200l-63 66zM1528 215v-215h-727q-178 0 -275 47q-105 51 -138 167h-48v-214h-290v700h475q165 0 244 -59q79 -60 79 -184v-4q0 -180 -179 -224q42 -14 132 -14h727zM1198 589v-49h290v-110h-290v-49h330v-111h-610v430h610v-111
h-330zM340 393h136q73 0 73 62v3q0 64 -73 64h-136v-129z" />
    <glyph glyph-name="R_Edieresis.dlig" horiz-adv-x="1564" 
d="M1202 756h-251v194h251v-194zM1508 756h-251v194h251v-194zM1528 215v-215h-727q-178 0 -275 47q-105 51 -138 167h-48v-214h-290v700h475q165 0 244 -59q79 -60 79 -184v-4q0 -180 -179 -224q42 -14 132 -14h727zM1198 589v-49h290v-110h-290v-49h330v-111h-610v430h610
v-111h-330zM340 393h136q73 0 73 62v3q0 64 -73 64h-136v-129z" />
    <glyph glyph-name="R_Egrave.dlig" horiz-adv-x="1564" 
d="M1415 756h-370v214l370 -86v-128zM1528 215v-215h-727q-178 0 -275 47q-105 51 -138 167h-48v-214h-290v700h475q165 0 244 -59q79 -60 79 -184v-4q0 -180 -179 -224q42 -14 132 -14h727zM1198 589v-49h290v-110h-290v-49h330v-111h-610v430h610v-111h-330zM340 393h136
q73 0 73 62v3q0 64 -73 64h-136v-129z" />
    <glyph glyph-name="R_I.dlig" horiz-adv-x="1278" 
d="M1228 215v-215h-427q-178 0 -275 47q-105 51 -138 167h-48v-214h-290v700h475q165 0 244 -59q79 -60 79 -184v-4q0 -180 -179 -224q42 -14 132 -14h427zM1228 700v-430h-300v430h300zM340 393h136q73 0 73 62v3q0 64 -73 64h-136v-129z" />
    <glyph glyph-name="R_Iacute.dlig" horiz-adv-x="1278" 
d="M1263 970v-214h-370v128zM1228 215v-215h-427q-178 0 -275 47q-105 51 -138 167h-48v-214h-290v700h475q165 0 244 -59q79 -60 79 -184v-4q0 -180 -179 -224q42 -14 132 -14h427zM928 700h300v-430h-300v430zM340 393h136q73 0 73 62v3q0 64 -73 64h-136v-129z" />
    <glyph glyph-name="R_Icircumflex.dlig" horiz-adv-x="1278" 
d="M1015 756h-200l128 194h270l128 -194h-200l-63 66zM1228 215v-215h-427q-178 0 -275 47q-105 51 -138 167h-48v-214h-290v700h475q165 0 244 -59q79 -60 79 -184v-4q0 -180 -179 -224q42 -14 132 -14h427zM928 700h300v-430h-300v430zM340 393h136q73 0 73 62v3
q0 64 -73 64h-136v-129z" />
    <glyph glyph-name="R_Idieresis.dlig" horiz-adv-x="1278" 
d="M1050 756h-251v194h251v-194zM1356 950v-194h-251v194h251zM1228 215v-215h-427q-178 0 -275 47q-105 51 -138 167h-48v-214h-290v700h475q165 0 244 -59q79 -60 79 -184v-4q0 -180 -179 -224q42 -14 132 -14h427zM928 700h300v-430h-300v430zM340 393h136q73 0 73 62v3
q0 64 -73 64h-136v-129z" />
    <glyph glyph-name="R_Igrave.dlig" horiz-adv-x="1278" 
d="M1263 884v-128h-370v214zM1228 215v-215h-427q-178 0 -275 47q-105 51 -138 167h-48v-214h-290v700h475q165 0 244 -59q79 -60 79 -184v-4q0 -180 -179 -224q42 -14 132 -14h427zM928 700h300v-430h-300v430zM340 393h136q73 0 73 62v3q0 64 -73 64h-136v-129z" />
    <glyph glyph-name="R_O.dlig" horiz-adv-x="1777" 
d="M1648 667q99 -53 99 -174v-2q0 -118 -99 -171q-100 -53 -322 -52q-221 1 -320 54t-99 170v4q0 119 99 172q99 52 321 52t321 -53zM1737 215v-215h-936q-178 0 -275 47q-105 51 -138 167h-48v-214h-290v700h475q165 0 244 -59q79 -60 79 -184v-4q0 -180 -179 -224
q42 -14 132 -14h936zM1457 492q0 46 -27 65q-27 18 -93 18q-64 0 -92 -19q-28 -18 -28 -61v-4q0 -42 27 -59t93 -17q65 0 93 17q27 17 27 58v2zM340 393h136q73 0 73 62v3q0 64 -73 64h-136v-129z" />
    <glyph glyph-name="R_Oacute.dlig" horiz-adv-x="1777" 
d="M1512 756h-370v128l370 86v-214zM1648 667q99 -53 99 -174v-2q0 -118 -99 -171q-100 -53 -322 -52q-221 1 -320 54t-99 170v4q0 119 99 172q99 52 321 52t321 -53zM1737 215v-215h-936q-178 0 -275 47q-105 51 -138 167h-48v-214h-290v700h475q165 0 244 -59
q79 -60 79 -184v-4q0 -180 -179 -224q42 -14 132 -14h936zM1457 492q0 46 -27 65q-27 18 -93 18q-64 0 -92 -19q-28 -18 -28 -61v-4q0 -42 27 -59t93 -17q65 0 93 17q27 17 27 58v2zM340 393h136q73 0 73 62v3q0 64 -73 64h-136v-129z" />
    <glyph glyph-name="R_Ocircumflex.dlig" horiz-adv-x="1777" 
d="M1264 756h-200l128 194h270l128 -194h-200l-63 66zM1648 667q99 -53 99 -174v-2q0 -118 -99 -171q-100 -53 -322 -52q-221 1 -320 54t-99 170v4q0 119 99 172q99 52 321 52t321 -53zM1737 215v-215h-936q-178 0 -275 47q-105 51 -138 167h-48v-214h-290v700h475
q165 0 244 -59q79 -60 79 -184v-4q0 -180 -179 -224q42 -14 132 -14h936zM1457 492q0 46 -27 65q-27 18 -93 18q-64 0 -92 -19q-28 -18 -28 -61v-4q0 -42 27 -59t93 -17q65 0 93 17q27 17 27 58v2zM340 393h136q73 0 73 62v3q0 64 -73 64h-136v-129z" />
    <glyph glyph-name="R_Odieresis.dlig" horiz-adv-x="1777" 
d="M1299 756h-251v194h251v-194zM1605 756h-251v194h251v-194zM1648 667q99 -53 99 -174v-2q0 -118 -99 -171q-100 -53 -322 -52q-221 1 -320 54t-99 170v4q0 119 99 172q99 52 321 52t321 -53zM1737 215v-215h-936q-178 0 -275 47q-105 51 -138 167h-48v-214h-290v700h475
q165 0 244 -59q79 -60 79 -184v-4q0 -180 -179 -224q42 -14 132 -14h936zM1457 492q0 46 -27 65q-27 18 -93 18q-64 0 -92 -19q-28 -18 -28 -61v-4q0 -42 27 -59t93 -17q65 0 93 17q27 17 27 58v2zM340 393h136q73 0 73 62v3q0 64 -73 64h-136v-129z" />
    <glyph glyph-name="R_Ograve.dlig" horiz-adv-x="1777" 
d="M1512 756h-370v214l370 -86v-128zM1648 667q99 -53 99 -174v-2q0 -118 -99 -171q-100 -53 -322 -52q-221 1 -320 54t-99 170v4q0 119 99 172q99 52 321 52t321 -53zM1737 215v-215h-936q-178 0 -275 47q-105 51 -138 167h-48v-214h-290v700h475q165 0 244 -59
q79 -60 79 -184v-4q0 -180 -179 -224q42 -14 132 -14h936zM1457 492q0 46 -27 65q-27 18 -93 18q-64 0 -92 -19q-28 -18 -28 -61v-4q0 -42 27 -59t93 -17q65 0 93 17q27 17 27 58v2zM340 393h136q73 0 73 62v3q0 64 -73 64h-136v-129z" />
    <glyph glyph-name="R_Otilde.dlig" horiz-adv-x="1777" 
d="M1327 778q-75 20 -113 20q-78 0 -135 -40v165q64 40 135 40q38 0 113 -20q76 -20 113 -20q81 0 135 40v-165q-60 -40 -135 -40q-37 0 -113 20zM1648 667q99 -53 99 -174v-2q0 -118 -99 -171q-100 -53 -322 -52q-221 1 -320 54t-99 170v4q0 119 99 172q99 52 321 52
t321 -53zM1737 215v-215h-936q-178 0 -275 47q-105 51 -138 167h-48v-214h-290v700h475q165 0 244 -59q79 -60 79 -184v-4q0 -180 -179 -224q42 -14 132 -14h936zM1457 492q0 46 -27 65q-27 18 -93 18q-64 0 -92 -19q-28 -18 -28 -61v-4q0 -42 27 -59t93 -17q65 0 93 17
q27 17 27 58v2zM340 393h136q73 0 73 62v3q0 64 -73 64h-136v-129z" />
    <glyph glyph-name="R_U.dlig" horiz-adv-x="1814" 
d="M1756 215v-215h-955q-178 0 -275 47q-105 51 -138 167h-48v-214h-290v700h475q165 0 244 -59q79 -60 79 -184v-4q0 -180 -179 -224q42 -14 132 -14h955zM1766 700v-157q0 -145 -101 -209q-99 -62 -318 -60q-221 2 -320 63q-101 64 -101 206v157h300v-127q0 -68 26 -95
q26 -28 95 -29q68 -1 94 27q25 27 25 97v127h300zM340 393h136q73 0 73 62v3q0 64 -73 64h-136v-129z" />
    <glyph glyph-name="R_Uacute.dlig" horiz-adv-x="1814" 
d="M1532 756h-370v128l370 86v-214zM1756 215v-215h-955q-178 0 -275 47q-105 51 -138 167h-48v-214h-290v700h475q165 0 244 -59q79 -60 79 -184v-4q0 -180 -179 -224q42 -14 132 -14h955zM1766 700v-157q0 -145 -101 -209q-99 -62 -318 -60q-221 2 -320 63
q-101 64 -101 206v157h300v-127q0 -68 26 -95q26 -28 95 -29q68 -1 94 27q25 27 25 97v127h300zM340 393h136q73 0 73 62v3q0 64 -73 64h-136v-129z" />
    <glyph glyph-name="R_Ucircumflex.dlig" horiz-adv-x="1814" 
d="M1284 756h-200l128 194h270l128 -194h-200l-63 66zM1756 215v-215h-955q-178 0 -275 47q-105 51 -138 167h-48v-214h-290v700h475q165 0 244 -59q79 -60 79 -184v-4q0 -180 -179 -224q42 -14 132 -14h955zM1766 700v-157q0 -145 -101 -209q-99 -62 -318 -60
q-221 2 -320 63q-101 64 -101 206v157h300v-127q0 -68 26 -95q26 -28 95 -29q68 -1 94 27q25 27 25 97v127h300zM340 393h136q73 0 73 62v3q0 64 -73 64h-136v-129z" />
    <glyph glyph-name="R_Udieresis.dlig" horiz-adv-x="1814" 
d="M1319 756h-251v194h251v-194zM1625 756h-251v194h251v-194zM1756 215v-215h-955q-178 0 -275 47q-105 51 -138 167h-48v-214h-290v700h475q165 0 244 -59q79 -60 79 -184v-4q0 -180 -179 -224q42 -14 132 -14h955zM1766 700v-157q0 -145 -101 -209q-99 -62 -318 -60
q-221 2 -320 63q-101 64 -101 206v157h300v-127q0 -68 26 -95q26 -28 95 -29q68 -1 94 27q25 27 25 97v127h300zM340 393h136q73 0 73 62v3q0 64 -73 64h-136v-129z" />
    <glyph glyph-name="R_Ugrave.dlig" horiz-adv-x="1814" 
d="M1532 756h-370v214l370 -86v-128zM1756 215v-215h-955q-178 0 -275 47q-105 51 -138 167h-48v-214h-290v700h475q165 0 244 -59q79 -60 79 -184v-4q0 -180 -179 -224q42 -14 132 -14h955zM1766 700v-157q0 -145 -101 -209q-99 -62 -318 -60q-221 2 -320 63
q-101 64 -101 206v157h300v-127q0 -68 26 -95q26 -28 95 -29q68 -1 94 27q25 27 25 97v127h300zM340 393h136q73 0 73 62v3q0 64 -73 64h-136v-129z" />
    <glyph glyph-name="T_H.dlig" horiz-adv-x="1661" 
d="M1611 700v-700h-300v255h-230v-255h-300v496h-220v-496h-300v496h-241v204h1061v-245h230v245h300z" />
    <glyph glyph-name="T_L.dlig" horiz-adv-x="1454" 
d="M1444 204v-204h-663v496h-220v-496h-300v496h-241v204h1061v-496h363z" />
    <glyph glyph-name="T_T.dlig" horiz-adv-x="1323" 
d="M1303 496h-222v-496h-300v496h-220v-496h-300v496h-241v204h1283v-204z" />
    <glyph glyph-name="k_a.dlig" horiz-adv-x="1696" 
d="M1696 215v-215h-795q-235 0 -353 62q-119 62 -147 200l-51 -3v-259h-300v700h300v-236q118 12 167 65q49 54 49 171h299q2 -150 -53 -244q-56 -95 -177 -143q43 -97 266 -98h795zM826 270l277 430h320l273 -430h-300l-26 55h-219l-25 -55h-300zM1317 435l-59 124
l-56 -124h115z" />
    <glyph glyph-name="k_aacute.dlig" horiz-adv-x="1696" 
d="M1443 756h-370v128l370 86v-214zM1696 215v-215h-795q-235 0 -353 62q-119 62 -147 200l-51 -3v-259h-300v700h300v-236q118 12 167 65q49 54 49 171h299q2 -150 -53 -244q-56 -95 -177 -143q43 -97 266 -98h795zM1423 700l273 -430h-300l-26 55h-219l-25 -55h-300
l277 430h320zM1317 435l-59 124l-56 -124h115z" />
    <glyph glyph-name="k_acircumflex.dlig" horiz-adv-x="1696" 
d="M1195 756h-200l128 194h270l128 -194h-200l-63 66zM1696 215v-215h-795q-235 0 -353 62q-119 62 -147 200l-51 -3v-259h-300v700h300v-236q118 12 167 65q49 54 49 171h299q2 -150 -53 -244q-56 -95 -177 -143q43 -97 266 -98h795zM1423 700l273 -430h-300l-26 55h-219
l-25 -55h-300l277 430h320zM1317 435l-59 124l-56 -124h115z" />
    <glyph glyph-name="k_adieresis.dlig" horiz-adv-x="1696" 
d="M1230 756h-251v194h251v-194zM1536 756h-251v194h251v-194zM1696 215v-215h-795q-235 0 -353 62q-119 62 -147 200l-51 -3v-259h-300v700h300v-236q118 12 167 65q49 54 49 171h299q2 -150 -53 -244q-56 -95 -177 -143q43 -97 266 -98h795zM1423 700l273 -430h-300
l-26 55h-219l-25 -55h-300l277 430h320zM1317 435l-59 124l-56 -124h115z" />
    <glyph glyph-name="k_aring.dlig" horiz-adv-x="1696" 
d="M1094 687q-23 43 -23 100q0 82 47 129q49 50 140 50t140 -50q47 -47 47 -129q0 -54 -19 -92l270 -425h-300l-26 55h-219l-25 -55h-300zM1202 787q0 -55 56 -55q54 0 54 55q0 52 -54 52q-56 0 -56 -52zM1696 215v-215h-795q-235 0 -353 62q-119 62 -147 200l-51 -3v-259
h-300v700h300v-236q118 12 167 65q49 54 49 171h299q2 -150 -53 -244q-56 -95 -177 -143q43 -97 266 -98h795zM1317 435l-59 124l-56 -124h115z" />
    <glyph glyph-name="k_atilde.dlig" horiz-adv-x="1696" 
d="M1315 764l-29 7l-28 7q-75 20 -113 20q-78 0 -135 -40v165q64 40 135 40q38 0 113 -20l28 -7l29 -7q31 -6 56 -6q81 0 135 40v-165q-60 -40 -135 -40q-25 0 -56 6zM1696 215v-215h-795q-235 0 -353 62q-119 62 -147 200l-51 -3v-259h-300v700h300v-236q118 12 167 65
q49 54 49 171h299q2 -150 -53 -244q-56 -95 -177 -143q43 -97 266 -98h795zM1423 700l273 -430h-300l-26 55h-219l-25 -55h-300l277 430h320zM1317 435l-59 124l-56 -124h115z" />
    <glyph glyph-name="k_e.dlig" horiz-adv-x="1571" 
d="M1543 215v-215h-616q-237 0 -363 62q-130 63 -161 200l-53 -3v-259h-300v700h300v-236q118 12 167 65q49 54 49 171h299q3 -292 -227 -386q51 -97 289 -99h616zM1213 589v-49h290v-110h-290v-49h330v-111h-600v430h600v-111h-330z" />
    <glyph glyph-name="k_eacute.dlig" horiz-adv-x="1571" 
d="M1432 756h-370v128l370 86v-214zM1543 215v-215h-616q-237 0 -363 62q-130 63 -161 200l-53 -3v-259h-300v700h300v-236q118 12 167 65q49 54 49 171h299q3 -292 -227 -386q51 -97 289 -99h616zM1213 589v-49h290v-110h-290v-49h330v-111h-600v430h600v-111h-330z" />
    <glyph glyph-name="k_ecircumflex.dlig" horiz-adv-x="1571" 
d="M1184 756h-200l128 194h270l128 -194h-200l-63 66zM1543 215v-215h-616q-237 0 -363 62q-130 63 -161 200l-53 -3v-259h-300v700h300v-236q118 12 167 65q49 54 49 171h299q3 -292 -227 -386q51 -97 289 -99h616zM1213 589v-49h290v-110h-290v-49h330v-111h-600v430h600
v-111h-330z" />
    <glyph glyph-name="k_edieresis.dlig" horiz-adv-x="1571" 
d="M1219 756h-251v194h251v-194zM1525 756h-251v194h251v-194zM1543 215v-215h-616q-237 0 -363 62q-130 63 -161 200l-53 -3v-259h-300v700h300v-236q118 12 167 65q49 54 49 171h299q3 -292 -227 -386q51 -97 289 -99h616zM1213 589v-49h290v-110h-290v-49h330v-111h-600
v430h600v-111h-330z" />
    <glyph glyph-name="k_egrave.dlig" horiz-adv-x="1571" 
d="M1432 756h-370v214l370 -86v-128zM1543 215v-215h-616q-237 0 -363 62q-130 63 -161 200l-53 -3v-259h-300v700h300v-236q118 12 167 65q49 54 49 171h299q3 -292 -227 -386q51 -97 289 -99h616zM1213 589v-49h290v-110h-290v-49h330v-111h-600v430h600v-111h-330z" />
    <glyph glyph-name="k_i.dlig" horiz-adv-x="1302" 
d="M904 215h348v-215h-348q-235 0 -353 62q-119 62 -147 200l-51 -3v-259h-300l-3 700h303v-239q119 12 166 66q45 53 45 173h299q2 -150 -52 -243q-55 -96 -173 -144q43 -97 266 -98zM1252 700v-430h-300v430h300z" />
    <glyph glyph-name="k_iacute.dlig" horiz-adv-x="1302" 
d="M1287 970v-214h-370v128zM904 215h348v-215h-348q-235 0 -353 62q-119 62 -147 200l-51 -3v-259h-300l-3 700h303v-239q119 12 166 66q45 53 45 173h299q2 -150 -52 -243q-55 -96 -173 -144q43 -97 266 -98zM952 700h300v-430h-300v430z" />
    <glyph glyph-name="k_icircumflex.dlig" horiz-adv-x="1302" 
d="M1039 756h-200l128 194h270l128 -194h-200l-63 66zM904 215h348v-215h-348q-235 0 -353 62q-119 62 -147 200l-51 -3v-259h-300l-3 700h303v-239q119 12 166 66q45 53 45 173h299q2 -150 -52 -243q-55 -96 -173 -144q43 -97 266 -98zM952 700h300v-430h-300v430z" />
    <glyph glyph-name="k_idieresis.dlig" horiz-adv-x="1302" 
d="M1074 756h-251v194h251v-194zM1380 950v-194h-251v194h251zM904 215h348v-215h-348q-235 0 -353 62q-119 62 -147 200l-51 -3v-259h-300l-3 700h303v-239q119 12 166 66q45 53 45 173h299q2 -150 -52 -243q-55 -96 -173 -144q43 -97 266 -98zM952 700h300v-430h-300v430z
" />
    <glyph glyph-name="k_igrave.dlig" horiz-adv-x="1302" 
d="M1287 884v-128h-370v214zM904 215h348v-215h-348q-235 0 -353 62q-119 62 -147 200l-51 -3v-259h-300l-3 700h303v-239q119 12 166 66q45 53 45 173h299q2 -150 -52 -243q-55 -96 -173 -144q43 -97 266 -98zM952 700h300v-430h-300v430z" />
    <glyph glyph-name="k_o.dlig" horiz-adv-x="1784" 
d="M1655 667q99 -53 99 -171v-2q0 -116 -99 -168q-100 -53 -322 -52q-221 1 -320 54q-99 52 -99 167v4q0 117 99 169t321 52t321 -53zM904 215h850v-215h-850q-235 0 -353 62q-119 62 -147 200l-51 -3v-259h-300l-3 700h303v-239q119 12 166 66q45 53 45 173h299
q2 -150 -52 -243q-55 -96 -173 -144q43 -97 266 -98zM1454 495q0 44 -27 62t-93 18q-120 0 -120 -77v-4q0 -42 27 -58q27 -17 93 -17t93 16q27 17 27 58v2z" />
    <glyph glyph-name="k_oacute.dlig" horiz-adv-x="1784" 
d="M1498 756h-370v128l370 86v-214zM1655 667q99 -53 99 -171v-2q0 -116 -99 -168q-100 -53 -322 -52q-221 1 -320 54q-99 52 -99 167v4q0 117 99 169t321 52t321 -53zM904 215h850v-215h-850q-235 0 -353 62q-119 62 -147 200l-51 -3v-259h-300l-3 700h303v-239
q119 12 166 66q45 53 45 173h299q2 -150 -52 -243q-55 -96 -173 -144q43 -97 266 -98zM1454 495q0 44 -27 62t-93 18q-120 0 -120 -77v-4q0 -42 27 -58q27 -17 93 -17t93 16q27 17 27 58v2z" />
    <glyph glyph-name="k_ocircumflex.dlig" horiz-adv-x="1784" 
d="M1250 756h-200l128 194h270l128 -194h-200l-63 66zM1655 667q99 -53 99 -171v-2q0 -116 -99 -168q-100 -53 -322 -52q-221 1 -320 54q-99 52 -99 167v4q0 117 99 169t321 52t321 -53zM904 215h850v-215h-850q-235 0 -353 62q-119 62 -147 200l-51 -3v-259h-300l-3 700
h303v-239q119 12 166 66q45 53 45 173h299q2 -150 -52 -243q-55 -96 -173 -144q43 -97 266 -98zM1454 495q0 44 -27 62t-93 18q-120 0 -120 -77v-4q0 -42 27 -58q27 -17 93 -17t93 16q27 17 27 58v2z" />
    <glyph glyph-name="k_odieresis.dlig" horiz-adv-x="1784" 
d="M1285 756h-251v194h251v-194zM1591 756h-251v194h251v-194zM1655 667q99 -53 99 -171v-2q0 -116 -99 -168q-100 -53 -322 -52q-221 1 -320 54q-99 52 -99 167v4q0 117 99 169t321 52t321 -53zM904 215h850v-215h-850q-235 0 -353 62q-119 62 -147 200l-51 -3v-259h-300
l-3 700h303v-239q119 12 166 66q45 53 45 173h299q2 -150 -52 -243q-55 -96 -173 -144q43 -97 266 -98zM1454 495q0 44 -27 62t-93 18q-120 0 -120 -77v-4q0 -42 27 -58q27 -17 93 -17t93 16q27 17 27 58v2z" />
    <glyph glyph-name="k_ograve.dlig" horiz-adv-x="1784" 
d="M1498 756h-370v214l370 -86v-128zM1655 667q99 -53 99 -171v-2q0 -116 -99 -168q-100 -53 -322 -52q-221 1 -320 54q-99 52 -99 167v4q0 117 99 169t321 52t321 -53zM904 215h850v-215h-850q-235 0 -353 62q-119 62 -147 200l-51 -3v-259h-300l-3 700h303v-239
q119 12 166 66q45 53 45 173h299q2 -150 -52 -243q-55 -96 -173 -144q43 -97 266 -98zM1454 495q0 44 -27 62t-93 18q-120 0 -120 -77v-4q0 -42 27 -58q27 -17 93 -17t93 16q27 17 27 58v2z" />
    <glyph glyph-name="k_otilde.dlig" horiz-adv-x="1784" 
d="M1370 764l-29 7l-28 7q-75 20 -113 20q-78 0 -135 -40v165q64 40 135 40q38 0 113 -20l28 -7l29 -7q31 -6 56 -6q81 0 135 40v-165q-60 -40 -135 -40q-25 0 -56 6zM1655 667q99 -53 99 -171v-2q0 -116 -99 -168q-100 -53 -322 -52q-221 1 -320 54q-99 52 -99 167v4
q0 117 99 169t321 52t321 -53zM904 215h850v-215h-850q-235 0 -353 62q-119 62 -147 200l-51 -3v-259h-300l-3 700h303v-239q119 12 166 66q45 53 45 173h299q2 -150 -52 -243q-55 -96 -173 -144q43 -97 266 -98zM1454 495q0 44 -27 62t-93 18q-120 0 -120 -77v-4
q0 -42 27 -58q27 -17 93 -17t93 16q27 17 27 58v2z" />
    <glyph glyph-name="k_u.dlig" horiz-adv-x="1820" 
d="M904 215h830v-215h-830q-235 0 -353 62q-119 62 -147 200l-51 -3v-259h-300l-3 700h303v-239q119 12 166 66q45 53 45 173h299q2 -150 -52 -243q-55 -96 -173 -144q43 -97 266 -98zM1770 700v-157q0 -145 -101 -209q-99 -62 -318 -60q-221 2 -320 63q-101 64 -101 206
v157h300v-127q0 -68 26 -95q26 -28 95 -29q68 -1 94 27q25 27 25 97v127h300z" />
    <glyph glyph-name="k_uacute.dlig" horiz-adv-x="1820" 
d="M1535 756h-370v128l370 86v-214zM904 215h830v-215h-830q-235 0 -353 62q-119 62 -147 200l-51 -3v-259h-300l-3 700h303v-239q119 12 166 66q45 53 45 173h299q2 -150 -52 -243q-55 -96 -173 -144q43 -97 266 -98zM1770 700v-157q0 -145 -101 -209q-99 -62 -318 -60
q-221 2 -320 63q-101 64 -101 206v157h300v-127q0 -68 26 -95q26 -28 95 -29q68 -1 94 27q25 27 25 97v127h300z" />
    <glyph glyph-name="k_ucircumflex.dlig" horiz-adv-x="1820" 
d="M1287 756h-200l128 194h270l128 -194h-200l-63 66zM904 215h830v-215h-830q-235 0 -353 62q-119 62 -147 200l-51 -3v-259h-300l-3 700h303v-239q119 12 166 66q45 53 45 173h299q2 -150 -52 -243q-55 -96 -173 -144q43 -97 266 -98zM1770 700v-157q0 -145 -101 -209
q-99 -62 -318 -60q-221 2 -320 63q-101 64 -101 206v157h300v-127q0 -68 26 -95q26 -28 95 -29q68 -1 94 27q25 27 25 97v127h300z" />
    <glyph glyph-name="k_udieresis.dlig" horiz-adv-x="1820" 
d="M1322 756h-251v194h251v-194zM1628 756h-251v194h251v-194zM904 215h830v-215h-830q-235 0 -353 62q-119 62 -147 200l-51 -3v-259h-300l-3 700h303v-239q119 12 166 66q45 53 45 173h299q2 -150 -52 -243q-55 -96 -173 -144q43 -97 266 -98zM1770 700v-157
q0 -145 -101 -209q-99 -62 -318 -60q-221 2 -320 63q-101 64 -101 206v157h300v-127q0 -68 26 -95q26 -28 95 -29q68 -1 94 27q25 27 25 97v127h300z" />
    <glyph glyph-name="k_ugrave.dlig" horiz-adv-x="1820" 
d="M1535 756h-370v214l370 -86v-128zM904 215h830v-215h-830q-235 0 -353 62q-119 62 -147 200l-51 -3v-259h-300l-3 700h303v-239q119 12 166 66q45 53 45 173h299q2 -150 -52 -243q-55 -96 -173 -144q43 -97 266 -98zM1770 700v-157q0 -145 -101 -209q-99 -62 -318 -60
q-221 2 -320 63q-101 64 -101 206v157h300v-127q0 -68 26 -95q26 -28 95 -29q68 -1 94 27q25 27 25 97v127h300z" />
    <glyph glyph-name="l_a.dlig" horiz-adv-x="1296" 
d="M1281 0h-1231v700h300v-496h931v-204zM711 270h-300l277 430h320l273 -430h-300l-26 55h-219zM902 435l-59 124l-56 -124h115z" />
    <glyph glyph-name="l_aacute.dlig" horiz-adv-x="1296" 
d="M1043 756h-370v128l370 86v-214zM1281 0h-1231v700h300v-496h931v-204zM711 270h-300l277 430h320l273 -430h-300l-26 55h-219zM902 435l-59 124l-56 -124h115z" />
    <glyph glyph-name="l_acircumflex.dlig" horiz-adv-x="1296" 
d="M795 756h-200l128 194h270l128 -194h-200l-63 66zM1281 0h-1231v700h300v-496h931v-204zM711 270h-300l277 430h320l273 -430h-300l-26 55h-219zM902 435l-59 124l-56 -124h115z" />
    <glyph glyph-name="l_adieresis.dlig" horiz-adv-x="1296" 
d="M830 756h-251v194h251v-194zM1136 756h-251v194h251v-194zM1281 0h-1231v700h300v-496h931v-204zM711 270h-300l277 430h320l273 -430h-300l-26 55h-219zM902 435l-59 124l-56 -124h115z" />
    <glyph glyph-name="l_agrave.dlig" horiz-adv-x="1296" 
d="M1043 756h-370v214l370 -86v-128zM1281 0h-1231v700h300v-496h931v-204zM711 270h-300l277 430h320l273 -430h-300l-26 55h-219zM902 435l-59 124l-56 -124h115z" />
    <glyph glyph-name="l_atilde.dlig" horiz-adv-x="1296" 
d="M858 778q-75 20 -113 20q-78 0 -135 -40v165q64 40 135 40q25 0 56 -6l29 -7l28 -7q76 -20 113 -20q81 0 135 40v-165q-60 -40 -135 -40q-37 0 -113 20zM1281 0h-1231v700h300v-496h931v-204zM711 270h-300l277 430h320l273 -430h-300l-26 55h-219zM902 435l-59 124
l-56 -124h115z" />
    <glyph glyph-name="l_e.dlig" horiz-adv-x="1088" 
d="M1060 0h-1010v700h300v-496h710v-204zM730 589v-49h290v-110h-290v-49h330v-111h-610v430h610v-111h-330z" />
    <glyph glyph-name="l_eacute.dlig" horiz-adv-x="1088" 
d="M920 756h-370v128l370 86v-214zM1060 0h-1010v700h300v-496h710v-204zM730 589v-49h290v-110h-290v-49h330v-111h-610v430h610v-111h-330z" />
    <glyph glyph-name="l_ecircumflex.dlig" horiz-adv-x="1088" 
d="M672 756h-200l128 194h270l128 -194h-200l-63 66zM1060 0h-1010v700h300v-496h710v-204zM730 589v-49h290v-110h-290v-49h330v-111h-610v430h610v-111h-330z" />
    <glyph glyph-name="l_edieresis.dlig" horiz-adv-x="1088" 
d="M707 756h-251v194h251v-194zM1013 756h-251v194h251v-194zM1060 0h-1010v700h300v-496h710v-204zM730 589v-49h290v-110h-290v-49h330v-111h-610v430h610v-111h-330z" />
    <glyph glyph-name="l_egrave.dlig" horiz-adv-x="1088" 
d="M920 756h-370v214l370 -86v-128zM1060 0h-1010v700h300v-496h710v-204zM730 589v-49h290v-110h-290v-49h330v-111h-610v430h610v-111h-330z" />
    <glyph glyph-name="l_i.dlig" horiz-adv-x="800" 
d="M750 0h-700v700h300v-496h400v-204zM750 700v-430h-300v430h300z" />
    <glyph glyph-name="l_iacute.dlig" horiz-adv-x="800" 
d="M786 970v-214h-370v128zM750 0h-700v700h300v-496h400v-204zM450 700h300v-430h-300v430z" />
    <glyph glyph-name="l_icircumflex.dlig" horiz-adv-x="800" 
d="M538 756h-200l128 194h270l128 -194h-200l-63 66zM750 0h-700v700h300v-496h400v-204zM450 700h300v-430h-300v430z" />
    <glyph glyph-name="l_idieresis.dlig" horiz-adv-x="800" 
d="M573 756h-251v194h251v-194zM879 950v-194h-251v194h251zM750 0h-700v700h300v-496h400v-204zM450 700h300v-430h-300v430z" />
    <glyph glyph-name="l_igrave.dlig" horiz-adv-x="800" 
d="M786 884v-128h-370v214zM750 0h-700v700h300v-496h400v-204zM450 700h300v-430h-300v430z" />
    <glyph glyph-name="l_l.dlig" horiz-adv-x="874" 
d="M849 0h-799v700h300v-496h499v-204zM849 470v-200h-418v430h285v-230h133z" />
    <glyph glyph-name="l_o.dlig" horiz-adv-x="1300" 
d="M1171 667q99 -53 99 -174v-2q0 -118 -99 -171q-100 -53 -322 -52q-221 1 -320 54t-99 170v4q0 119 99 172q99 52 321 52t321 -53zM1260 0h-1210v700h300v-496h910v-204zM970 492q0 46 -27 65q-27 18 -93 18q-64 0 -92 -19q-28 -18 -28 -61v-4q0 -42 27 -59t93 -17
q65 0 93 17q27 17 27 58v2z" />
    <glyph glyph-name="l_oacute.dlig" horiz-adv-x="1300" 
d="M1036 756h-370v128l370 86v-214zM1171 667q99 -53 99 -174v-2q0 -118 -99 -171q-100 -53 -322 -52q-221 1 -320 54t-99 170v4q0 119 99 172q99 52 321 52t321 -53zM1260 0h-1210v700h300v-496h910v-204zM970 492q0 46 -27 65q-27 18 -93 18q-64 0 -92 -19
q-28 -18 -28 -61v-4q0 -42 27 -59t93 -17q65 0 93 17q27 17 27 58v2z" />
    <glyph glyph-name="l_ocircumflex.dlig" horiz-adv-x="1300" 
d="M788 756h-200l128 194h270l128 -194h-200l-63 66zM1171 667q99 -53 99 -174v-2q0 -118 -99 -171q-100 -53 -322 -52q-221 1 -320 54t-99 170v4q0 119 99 172q99 52 321 52t321 -53zM1260 0h-1210v700h300v-496h910v-204zM970 492q0 46 -27 65q-27 18 -93 18
q-64 0 -92 -19q-28 -18 -28 -61v-4q0 -42 27 -59t93 -17q65 0 93 17q27 17 27 58v2z" />
    <glyph glyph-name="l_odieresis.dlig" horiz-adv-x="1300" 
d="M823 756h-251v194h251v-194zM1129 756h-251v194h251v-194zM1171 667q99 -53 99 -174v-2q0 -118 -99 -171q-100 -53 -322 -52q-221 1 -320 54t-99 170v4q0 119 99 172q99 52 321 52t321 -53zM1260 0h-1210v700h300v-496h910v-204zM970 492q0 46 -27 65q-27 18 -93 18
q-64 0 -92 -19q-28 -18 -28 -61v-4q0 -42 27 -59t93 -17q65 0 93 17q27 17 27 58v2z" />
    <glyph glyph-name="l_ograve.dlig" horiz-adv-x="1300" 
d="M1036 756h-370v214l370 -86v-128zM1171 667q99 -53 99 -174v-2q0 -118 -99 -171q-100 -53 -322 -52q-221 1 -320 54t-99 170v4q0 119 99 172q99 52 321 52t321 -53zM1260 0h-1210v700h300v-496h910v-204zM970 492q0 46 -27 65q-27 18 -93 18q-64 0 -92 -19
q-28 -18 -28 -61v-4q0 -42 27 -59t93 -17q65 0 93 17q27 17 27 58v2z" />
    <glyph glyph-name="l_otilde.dlig" horiz-adv-x="1300" 
d="M908 764l-29 7l-28 7q-75 20 -113 20q-78 0 -135 -40v165q64 40 135 40q25 0 56 -6l29 -7l28 -7q76 -20 113 -20q81 0 135 40v-165q-60 -40 -135 -40q-25 0 -56 6zM1171 667q99 -53 99 -174v-2q0 -118 -99 -171q-100 -53 -322 -52q-221 1 -320 54t-99 170v4q0 119 99 172
q99 52 321 52t321 -53zM1260 0h-1210v700h300v-496h910v-204zM970 492q0 46 -27 65q-27 18 -93 18q-64 0 -92 -19q-28 -18 -28 -61v-4q0 -42 27 -59t93 -17q65 0 93 17q27 17 27 58v2z" />
    <glyph glyph-name="l_u.dlig" horiz-adv-x="1319" 
d="M349 215h910v-215h-1209v700h299v-485zM1269 700v-157q0 -145 -100 -209q-97 -62 -309 -60q-214 2 -311 63q-100 64 -100 206v157h300v-127q0 -68 24 -95q25 -28 87 -29q61 -1 85 27t24 97v127h300z" />
    <glyph glyph-name="l_uacute.dlig" horiz-adv-x="1319" 
d="M1045 756h-370v128l370 86v-214zM349 215h910v-215h-1209v700h299v-485zM1269 700v-157q0 -145 -100 -209q-97 -62 -309 -60q-214 2 -311 63q-100 64 -100 206v157h300v-127q0 -68 24 -95q25 -28 87 -29q61 -1 85 27t24 97v127h300z" />
    <glyph glyph-name="l_ucircumflex.dlig" horiz-adv-x="1319" 
d="M797 756h-200l128 194h270l128 -194h-200l-63 66zM349 215h910v-215h-1209v700h299v-485zM1269 700v-157q0 -145 -100 -209q-97 -62 -309 -60q-214 2 -311 63q-100 64 -100 206v157h300v-127q0 -68 24 -95q25 -28 87 -29q61 -1 85 27t24 97v127h300z" />
    <glyph glyph-name="l_udieresis.dlig" horiz-adv-x="1319" 
d="M832 756h-251v194h251v-194zM1138 756h-251v194h251v-194zM349 215h910v-215h-1209v700h299v-485zM1269 700v-157q0 -145 -100 -209q-97 -62 -309 -60q-214 2 -311 63q-100 64 -100 206v157h300v-127q0 -68 24 -95q25 -28 87 -29q61 -1 85 27t24 97v127h300z" />
    <glyph glyph-name="l_ugrave.dlig" horiz-adv-x="1319" 
d="M1045 756h-370v214l370 -86v-128zM349 215h910v-215h-1209v700h299v-485zM1269 700v-157q0 -145 -100 -209q-97 -62 -309 -60q-214 2 -311 63q-100 64 -100 206v157h300v-127q0 -68 24 -95q25 -28 87 -29q61 -1 85 27t24 97v127h300z" />
    <glyph glyph-name="m_m.dlig" horiz-adv-x="1726" 
d="M50 700h301l149 -302q6 -12 15 -33q9 -22 10 -30h3q2 8 11 30q8 22 13 33l149 302h323l149 -302q6 -12 15 -33q9 -22 10 -30h3q2 8 11 30q8 22 13 33l149 302h302v-700h-280v152q0 121 10 182h-1l-145 -294h-121l-145 294h-2q11 -67 11 -182v-152h-280v152q0 115 11 182
h-2l-145 -294h-121l-145 294h-2q11 -67 11 -182v-152h-280v700z" />
    <glyph glyph-name="n_n.dlig" horiz-adv-x="1455" 
d="M1405 700v-700h-276l-264 349h-3q5 -36 10 -106q3 -62 3 -99v-144h-276l-264 349h-3q5 -36 10 -106q3 -62 3 -99v-144h-295v700h276l264 -349h3q-5 36 -9 106q-4 62 -4 99v144h276l264 -349h3q-5 36 -9 106q-4 62 -4 99v144h295z" />
    <glyph glyph-name="r_a.dlig" horiz-adv-x="1740" 
d="M1740 215v-215h-939q-178 0 -275 47q-105 51 -138 167h-48v-214h-290v700h475q165 0 244 -59q79 -60 79 -184v-4q0 -180 -179 -224q42 -14 132 -14h939zM1170 270h-300l277 430h320l273 -430h-300l-26 55h-219zM1361 435l-59 124l-56 -124h115zM340 393h136q73 0 73 62v3
q0 64 -73 64h-136v-129z" />
    <glyph glyph-name="r_aacute.dlig" horiz-adv-x="1740" 
d="M1484 756h-370v128l370 86v-214zM1740 215v-215h-939q-178 0 -275 47q-105 51 -138 167h-48v-214h-290v700h475q165 0 244 -59q79 -60 79 -184v-4q0 -180 -179 -224q42 -14 132 -14h939zM1170 270h-300l277 430h320l273 -430h-300l-26 55h-219zM1361 435l-59 124
l-56 -124h115zM340 393h136q73 0 73 62v3q0 64 -73 64h-136v-129z" />
    <glyph glyph-name="r_acircumflex.dlig" horiz-adv-x="1740" 
d="M1236 756h-200l128 194h270l128 -194h-200l-63 66zM1740 215v-215h-939q-178 0 -275 47q-105 51 -138 167h-48v-214h-290v700h475q165 0 244 -59q79 -60 79 -184v-4q0 -180 -179 -224q42 -14 132 -14h939zM1170 270h-300l277 430h320l273 -430h-300l-26 55h-219z
M1361 435l-59 124l-56 -124h115zM340 393h136q73 0 73 62v3q0 64 -73 64h-136v-129z" />
    <glyph glyph-name="r_adieresis.dlig" horiz-adv-x="1740" 
d="M1271 756h-251v194h251v-194zM1577 756h-251v194h251v-194zM1740 215v-215h-939q-178 0 -275 47q-105 51 -138 167h-48v-214h-290v700h475q165 0 244 -59q79 -60 79 -184v-4q0 -180 -179 -224q42 -14 132 -14h939zM1170 270h-300l277 430h320l273 -430h-300l-26 55h-219z
M1361 435l-59 124l-56 -124h115zM340 393h136q73 0 73 62v3q0 64 -73 64h-136v-129z" />
    <glyph glyph-name="r_agrave.dlig" horiz-adv-x="1740" 
d="M1484 756h-370v214l370 -86v-128zM1740 215v-215h-939q-178 0 -275 47q-105 51 -138 167h-48v-214h-290v700h475q165 0 244 -59q79 -60 79 -184v-4q0 -180 -179 -224q42 -14 132 -14h939zM1170 270h-300l277 430h320l273 -430h-300l-26 55h-219zM1361 435l-59 124
l-56 -124h115zM340 393h136q73 0 73 62v3q0 64 -73 64h-136v-129z" />
    <glyph glyph-name="r_atilde.dlig" horiz-adv-x="1740" 
d="M1299 778q-75 20 -113 20q-78 0 -135 -40v165q64 40 135 40q38 0 113 -20q76 -20 113 -20q81 0 135 40v-165q-60 -40 -135 -40q-37 0 -113 20zM1740 215v-215h-939q-178 0 -275 47q-105 51 -138 167h-48v-214h-290v700h475q165 0 244 -59q79 -60 79 -184v-4
q0 -180 -179 -224q42 -14 132 -14h939zM1170 270h-300l277 430h320l273 -430h-300l-26 55h-219zM1361 435l-59 124l-56 -124h115zM340 393h136q73 0 73 62v3q0 64 -73 64h-136v-129z" />
    <glyph glyph-name="r_e.dlig" horiz-adv-x="1564" 
d="M1528 215v-215h-727q-178 0 -275 47q-105 51 -138 167h-48v-214h-290v700h475q165 0 244 -59q79 -60 79 -184v-4q0 -180 -179 -224q42 -14 132 -14h727zM1198 589v-49h290v-110h-290v-49h330v-111h-610v430h610v-111h-330zM340 393h136q73 0 73 62v3q0 64 -73 64h-136
v-129z" />
    <glyph glyph-name="r_eacute.dlig" horiz-adv-x="1564" 
d="M1415 756h-370v128l370 86v-214zM1528 215v-215h-727q-178 0 -275 47q-105 51 -138 167h-48v-214h-290v700h475q165 0 244 -59q79 -60 79 -184v-4q0 -180 -179 -224q42 -14 132 -14h727zM1198 589v-49h290v-110h-290v-49h330v-111h-610v430h610v-111h-330zM340 393h136
q73 0 73 62v3q0 64 -73 64h-136v-129z" />
    <glyph glyph-name="r_ecircumflex.dlig" horiz-adv-x="1564" 
d="M1167 756h-200l128 194h270l128 -194h-200l-63 66zM1528 215v-215h-727q-178 0 -275 47q-105 51 -138 167h-48v-214h-290v700h475q165 0 244 -59q79 -60 79 -184v-4q0 -180 -179 -224q42 -14 132 -14h727zM1198 589v-49h290v-110h-290v-49h330v-111h-610v430h610v-111
h-330zM340 393h136q73 0 73 62v3q0 64 -73 64h-136v-129z" />
    <glyph glyph-name="r_edieresis.dlig" horiz-adv-x="1564" 
d="M1202 756h-251v194h251v-194zM1508 756h-251v194h251v-194zM1528 215v-215h-727q-178 0 -275 47q-105 51 -138 167h-48v-214h-290v700h475q165 0 244 -59q79 -60 79 -184v-4q0 -180 -179 -224q42 -14 132 -14h727zM1198 589v-49h290v-110h-290v-49h330v-111h-610v430h610
v-111h-330zM340 393h136q73 0 73 62v3q0 64 -73 64h-136v-129z" />
    <glyph glyph-name="r_egrave.dlig" horiz-adv-x="1564" 
d="M1415 756h-370v214l370 -86v-128zM1528 215v-215h-727q-178 0 -275 47q-105 51 -138 167h-48v-214h-290v700h475q165 0 244 -59q79 -60 79 -184v-4q0 -180 -179 -224q42 -14 132 -14h727zM1198 589v-49h290v-110h-290v-49h330v-111h-610v430h610v-111h-330zM340 393h136
q73 0 73 62v3q0 64 -73 64h-136v-129z" />
    <glyph glyph-name="r_i.dlig" horiz-adv-x="1278" 
d="M1228 215v-215h-427q-178 0 -275 47q-105 51 -138 167h-48v-214h-290v700h475q165 0 244 -59q79 -60 79 -184v-4q0 -180 -179 -224q42 -14 132 -14h427zM1228 700v-430h-300v430h300zM340 393h136q73 0 73 62v3q0 64 -73 64h-136v-129z" />
    <glyph glyph-name="r_iacute.dlig" horiz-adv-x="1278" 
d="M1263 970v-214h-370v128zM1228 215v-215h-427q-178 0 -275 47q-105 51 -138 167h-48v-214h-290v700h475q165 0 244 -59q79 -60 79 -184v-4q0 -180 -179 -224q42 -14 132 -14h427zM928 700h300v-430h-300v430zM340 393h136q73 0 73 62v3q0 64 -73 64h-136v-129z" />
    <glyph glyph-name="r_icircumflex.dlig" horiz-adv-x="1278" 
d="M1015 756h-200l128 194h270l128 -194h-200l-63 66zM1228 215v-215h-427q-178 0 -275 47q-105 51 -138 167h-48v-214h-290v700h475q165 0 244 -59q79 -60 79 -184v-4q0 -180 -179 -224q42 -14 132 -14h427zM928 700h300v-430h-300v430zM340 393h136q73 0 73 62v3
q0 64 -73 64h-136v-129z" />
    <glyph glyph-name="r_idieresis.dlig" horiz-adv-x="1278" 
d="M1050 756h-251v194h251v-194zM1356 950v-194h-251v194h251zM1228 215v-215h-427q-178 0 -275 47q-105 51 -138 167h-48v-214h-290v700h475q165 0 244 -59q79 -60 79 -184v-4q0 -180 -179 -224q42 -14 132 -14h427zM928 700h300v-430h-300v430zM340 393h136q73 0 73 62v3
q0 64 -73 64h-136v-129z" />
    <glyph glyph-name="r_igrave.dlig" horiz-adv-x="1278" 
d="M1263 884v-128h-370v214zM1228 215v-215h-427q-178 0 -275 47q-105 51 -138 167h-48v-214h-290v700h475q165 0 244 -59q79 -60 79 -184v-4q0 -180 -179 -224q42 -14 132 -14h427zM928 700h300v-430h-300v430zM340 393h136q73 0 73 62v3q0 64 -73 64h-136v-129z" />
    <glyph glyph-name="r_o.dlig" horiz-adv-x="1777" 
d="M1648 667q99 -53 99 -174v-2q0 -118 -99 -171q-100 -53 -322 -52q-221 1 -320 54t-99 170v4q0 119 99 172q99 52 321 52t321 -53zM1737 215v-215h-936q-178 0 -275 47q-105 51 -138 167h-48v-214h-290v700h475q165 0 244 -59q79 -60 79 -184v-4q0 -180 -179 -224
q42 -14 132 -14h936zM1457 492q0 46 -27 65q-27 18 -93 18q-64 0 -92 -19q-28 -18 -28 -61v-4q0 -42 27 -59t93 -17q65 0 93 17q27 17 27 58v2zM340 393h136q73 0 73 62v3q0 64 -73 64h-136v-129z" />
    <glyph glyph-name="r_oacute.dlig" horiz-adv-x="1777" 
d="M1512 756h-370v128l370 86v-214zM1648 667q99 -53 99 -174v-2q0 -118 -99 -171q-100 -53 -322 -52q-221 1 -320 54t-99 170v4q0 119 99 172q99 52 321 52t321 -53zM1737 215v-215h-936q-178 0 -275 47q-105 51 -138 167h-48v-214h-290v700h475q165 0 244 -59
q79 -60 79 -184v-4q0 -180 -179 -224q42 -14 132 -14h936zM1457 492q0 46 -27 65q-27 18 -93 18q-64 0 -92 -19q-28 -18 -28 -61v-4q0 -42 27 -59t93 -17q65 0 93 17q27 17 27 58v2zM340 393h136q73 0 73 62v3q0 64 -73 64h-136v-129z" />
    <glyph glyph-name="r_ocircumflex.dlig" horiz-adv-x="1777" 
d="M1264 756h-200l128 194h270l128 -194h-200l-63 66zM1648 667q99 -53 99 -174v-2q0 -118 -99 -171q-100 -53 -322 -52q-221 1 -320 54t-99 170v4q0 119 99 172q99 52 321 52t321 -53zM1737 215v-215h-936q-178 0 -275 47q-105 51 -138 167h-48v-214h-290v700h475
q165 0 244 -59q79 -60 79 -184v-4q0 -180 -179 -224q42 -14 132 -14h936zM1457 492q0 46 -27 65q-27 18 -93 18q-64 0 -92 -19q-28 -18 -28 -61v-4q0 -42 27 -59t93 -17q65 0 93 17q27 17 27 58v2zM340 393h136q73 0 73 62v3q0 64 -73 64h-136v-129z" />
    <glyph glyph-name="r_odieresis.dlig" horiz-adv-x="1777" 
d="M1299 756h-251v194h251v-194zM1605 756h-251v194h251v-194zM1648 667q99 -53 99 -174v-2q0 -118 -99 -171q-100 -53 -322 -52q-221 1 -320 54t-99 170v4q0 119 99 172q99 52 321 52t321 -53zM1737 215v-215h-936q-178 0 -275 47q-105 51 -138 167h-48v-214h-290v700h475
q165 0 244 -59q79 -60 79 -184v-4q0 -180 -179 -224q42 -14 132 -14h936zM1457 492q0 46 -27 65q-27 18 -93 18q-64 0 -92 -19q-28 -18 -28 -61v-4q0 -42 27 -59t93 -17q65 0 93 17q27 17 27 58v2zM340 393h136q73 0 73 62v3q0 64 -73 64h-136v-129z" />
    <glyph glyph-name="r_ograve.dlig" horiz-adv-x="1777" 
d="M1512 756h-370v214l370 -86v-128zM1648 667q99 -53 99 -174v-2q0 -118 -99 -171q-100 -53 -322 -52q-221 1 -320 54t-99 170v4q0 119 99 172q99 52 321 52t321 -53zM1737 215v-215h-936q-178 0 -275 47q-105 51 -138 167h-48v-214h-290v700h475q165 0 244 -59
q79 -60 79 -184v-4q0 -180 -179 -224q42 -14 132 -14h936zM1457 492q0 46 -27 65q-27 18 -93 18q-64 0 -92 -19q-28 -18 -28 -61v-4q0 -42 27 -59t93 -17q65 0 93 17q27 17 27 58v2zM340 393h136q73 0 73 62v3q0 64 -73 64h-136v-129z" />
    <glyph glyph-name="r_otilde.dlig" horiz-adv-x="1777" 
d="M1327 778q-75 20 -113 20q-78 0 -135 -40v165q64 40 135 40q38 0 113 -20q76 -20 113 -20q81 0 135 40v-165q-60 -40 -135 -40q-37 0 -113 20zM1648 667q99 -53 99 -174v-2q0 -118 -99 -171q-100 -53 -322 -52q-221 1 -320 54t-99 170v4q0 119 99 172q99 52 321 52
t321 -53zM1737 215v-215h-936q-178 0 -275 47q-105 51 -138 167h-48v-214h-290v700h475q165 0 244 -59q79 -60 79 -184v-4q0 -180 -179 -224q42 -14 132 -14h936zM1457 492q0 46 -27 65q-27 18 -93 18q-64 0 -92 -19q-28 -18 -28 -61v-4q0 -42 27 -59t93 -17q65 0 93 17
q27 17 27 58v2zM340 393h136q73 0 73 62v3q0 64 -73 64h-136v-129z" />
    <glyph glyph-name="r_u.dlig" horiz-adv-x="1814" 
d="M1756 215v-215h-955q-178 0 -275 47q-105 51 -138 167h-48v-214h-290v700h475q165 0 244 -59q79 -60 79 -184v-4q0 -180 -179 -224q42 -14 132 -14h955zM1766 700v-157q0 -145 -101 -209q-99 -62 -318 -60q-221 2 -320 63q-101 64 -101 206v157h300v-127q0 -68 26 -95
q26 -28 95 -29q68 -1 94 27q25 27 25 97v127h300zM340 393h136q73 0 73 62v3q0 64 -73 64h-136v-129z" />
    <glyph glyph-name="r_uacute.dlig" horiz-adv-x="1814" 
d="M1532 756h-370v128l370 86v-214zM1756 215v-215h-955q-178 0 -275 47q-105 51 -138 167h-48v-214h-290v700h475q165 0 244 -59q79 -60 79 -184v-4q0 -180 -179 -224q42 -14 132 -14h955zM1766 700v-157q0 -145 -101 -209q-99 -62 -318 -60q-221 2 -320 63
q-101 64 -101 206v157h300v-127q0 -68 26 -95q26 -28 95 -29q68 -1 94 27q25 27 25 97v127h300zM340 393h136q73 0 73 62v3q0 64 -73 64h-136v-129z" />
    <glyph glyph-name="r_ucircumflex.dlig" horiz-adv-x="1814" 
d="M1284 756h-200l128 194h270l128 -194h-200l-63 66zM1756 215v-215h-955q-178 0 -275 47q-105 51 -138 167h-48v-214h-290v700h475q165 0 244 -59q79 -60 79 -184v-4q0 -180 -179 -224q42 -14 132 -14h955zM1766 700v-157q0 -145 -101 -209q-99 -62 -318 -60
q-221 2 -320 63q-101 64 -101 206v157h300v-127q0 -68 26 -95q26 -28 95 -29q68 -1 94 27q25 27 25 97v127h300zM340 393h136q73 0 73 62v3q0 64 -73 64h-136v-129z" />
    <glyph glyph-name="r_udieresis.dlig" horiz-adv-x="1814" 
d="M1319 756h-251v194h251v-194zM1625 756h-251v194h251v-194zM1756 215v-215h-955q-178 0 -275 47q-105 51 -138 167h-48v-214h-290v700h475q165 0 244 -59q79 -60 79 -184v-4q0 -180 -179 -224q42 -14 132 -14h955zM1766 700v-157q0 -145 -101 -209q-99 -62 -318 -60
q-221 2 -320 63q-101 64 -101 206v157h300v-127q0 -68 26 -95q26 -28 95 -29q68 -1 94 27q25 27 25 97v127h300zM340 393h136q73 0 73 62v3q0 64 -73 64h-136v-129z" />
    <glyph glyph-name="r_ugrave.dlig" horiz-adv-x="1814" 
d="M1532 756h-370v214l370 -86v-128zM1756 215v-215h-955q-178 0 -275 47q-105 51 -138 167h-48v-214h-290v700h475q165 0 244 -59q79 -60 79 -184v-4q0 -180 -179 -224q42 -14 132 -14h955zM1766 700v-157q0 -145 -101 -209q-99 -62 -318 -60q-221 2 -320 63
q-101 64 -101 206v157h300v-127q0 -68 26 -95q26 -28 95 -29q68 -1 94 27q25 27 25 97v127h300zM340 393h136q73 0 73 62v3q0 64 -73 64h-136v-129z" />
    <glyph glyph-name="t_h.dlig" horiz-adv-x="1661" 
d="M1611 700v-700h-300v255h-230v-255h-300v496h-220v-496h-300v496h-241v204h1061v-245h230v245h300z" />
    <glyph glyph-name="t_l.dlig" horiz-adv-x="1454" 
d="M1444 204v-204h-663v496h-220v-496h-300v496h-241v204h1061v-496h363z" />
    <glyph glyph-name="t_t.dlig" horiz-adv-x="1323" 
d="M1303 496h-222v-496h-300v496h-220v-496h-300v496h-241v204h1283v-204z" />
    <glyph glyph-name="ordfeminine" unicode="&#xaa;" horiz-adv-x="613" 
d="M571 570v-219h-182v31q-67 -40 -174 -40q-187 0 -187 100v9q0 111 261 111h82v24q0 33 -69 33t-69 -33v-7h-193v6q0 125 265 125q266 0 266 -140zM371 466v28h-96q-54 0 -54 -28v-6q0 -28 69 -28q81 0 81 34z" />
    <glyph glyph-name="ordmasculine" unicode="&#xba;" horiz-adv-x="612" 
d="M95 384q-67 42 -67 133v13q0 94 66 137q67 44 212 43t211 -44q67 -43 67 -136v-13q0 -91 -67 -134q-67 -44 -211 -43t-211 44zM378 518v13q0 59 -72 59q-82 0 -82 -59v-13q0 -58 82 -58q72 0 72 58z" />
    <glyph glyph-name="zero" unicode="0" horiz-adv-x="930" 
d="M799 634q101 -86 101 -286v-4q0 -197 -101 -281t-335 -82q-233 2 -333 85q-101 84 -101 279v5q0 199 101 284q100 85 334 85t334 -85zM329 346q0 -38 4 -59l219 201q-29 16 -87 16q-79 0 -107 -31q-29 -32 -29 -122v-5zM601 348q0 44 -5 66l-219 -201q28 -17 88 -17
q79 -1 107 30q29 31 29 118v4z" />
    <glyph glyph-name="one" unicode="1" horiz-adv-x="702" 
d="M677 205v-205h-642v205h209v138q-88 -28 -199 -28v205q94 2 147 51q52 48 52 129h300v-495h133z" />
    <glyph glyph-name="two" unicode="2" horiz-adv-x="853" 
d="M815 0h-783v153q0 116 88 182q89 66 279 88q76 9 106 23q27 13 27 38v2q0 51 -94 51q-103 0 -103 -69v-2h-296v2q0 123 89 184q98 67 316 67q381 0 381 -216v-4q0 -100 -68 -153q-75 -58 -256 -83q-117 -16 -159 -31q-34 -13 -34 -31v-2h507v-199z" />
    <glyph glyph-name="three" unicode="3" horiz-adv-x="844" 
d="M30 232v2h304v-2q0 -69 87 -69q95 0 95 61v2q0 57 -93 57h-110v138h110q93 0 93 57v2q0 57 -91 57t-91 -69v-2h-296v2q0 251 395 251q199 0 291 -53q91 -52 91 -162v-2q0 -55 -27 -87q-26 -32 -87 -52q65 -22 92 -58t27 -101v-2q0 -115 -92 -167q-93 -54 -299 -54
q-399 0 -399 251z" />
    <glyph glyph-name="four" unicode="4" horiz-adv-x="918" 
d="M898 141h-107v-141h-299v141h-472v181q108 86 149 171q40 81 40 207h279q0 -212 -118 -359h122l73 159h226v-159h107v-200z" />
    <glyph glyph-name="five" unicode="5" horiz-adv-x="852" 
d="M431 445q207 0 299 -55q92 -54 92 -176v-2q0 -123 -88 -176q-91 -55 -303 -55q-399 0 -399 251v2h304v-2q0 -69 87 -69q95 0 95 61v2q0 58 -93 58h-326l-42 47l62 369h668v-200h-478l-9 -55h131z" />
    <glyph glyph-name="six" unicode="6" horiz-adv-x="876" 
d="M769 381q83 -53 83 -167v-2q0 -231 -388 -231q-235 0 -337 89q-97 85 -97 275v2q0 197 100 284q101 88 330 88q387 0 387 -241v-2h-296v2q0 59 -99 59q-65 0 -93 -28q-29 -28 -31 -93q64 19 172 19q185 0 269 -54zM558 231q0 66 -115 66t-115 -66v-2q0 -66 115 -66
t115 66v2z" />
    <glyph glyph-name="seven" unicode="7" horiz-adv-x="778" 
d="M763 700v-215q-168 -100 -231 -212q-57 -102 -57 -273h-300q0 160 69 273q75 124 251 227h-480v200h748z" />
    <glyph glyph-name="eight" unicode="8" horiz-adv-x="854" 
d="M826 201v-2q0 -218 -399 -218t-399 218v2q0 101 88 151q-68 50 -68 139v2q0 218 379 218t379 -218v-2q0 -89 -68 -139q88 -50 88 -151zM312 477q0 -66 115 -66t115 66v2q0 66 -115 66t-115 -66v-2zM542 215q0 66 -115 66t-115 -66v-2q0 -66 115 -66t115 66v2z" />
    <glyph glyph-name="nine" unicode="9" horiz-adv-x="882" 
d="M755 630q97 -85 97 -275v-2q0 -197 -100 -284q-101 -88 -330 -88q-387 0 -387 241v2h296v-2q0 -59 99 -59q65 0 93 28q29 28 31 93q-64 -19 -172 -19q-185 0 -269 54q-83 53 -83 167v2q0 231 388 231q235 0 337 -89zM554 469v2q0 66 -115 66t-115 -66v-2q0 -66 115 -66
t115 66z" />
    <glyph glyph-name="fraction" unicode="&#x2044;" horiz-adv-x="707" 
d="M497 700h170l-457 -700h-170z" />
    <glyph glyph-name="onehalf" unicode="&#xbd;" horiz-adv-x="757" 
d="M46 509h77v46q-31 -10 -77 -10v89q77 2 77 66h133v-191h56v-90h-266v90zM678 700l-457 -700h-170l457 700h170zM522 87h206v-87h-338v65q0 48 35 72q37 25 127 32q34 3 48 10q10 5 10 13v1q0 18 -39 18q-47 0 -47 -24v-2h-131v2q0 103 179 103q160 0 160 -89v-2
q0 -82 -136 -98q-73 -10 -74 -14z" />
    <glyph glyph-name="onequarter" unicode="&#xbc;" horiz-adv-x="742" 
d="M30 509h77v46q-31 -10 -77 -10v89q77 2 77 66h133v-191h56v-90h-266v90zM662 700l-457 -700h-170l457 700h170zM712 54h-41v-55h-132v55h-165v80q53 52 53 146h137q0 -76 -44 -138h19l55 61h77v-61h41v-88z" />
    <glyph glyph-name="threequarters" unicode="&#xbe;" horiz-adv-x="781" 
d="M354 500q0 -87 -161 -87q-163 0 -163 99v1h121v-1q0 -8 9 -13q11 -7 32 -7q39 0 39 20v1q0 20 -41 20h-47v54h47q41 0 41 20v1q0 18 -40 18t-40 -20v-1h-117v1q0 99 160 99q159 0 159 -85v-1q0 -40 -46 -55q47 -15 47 -63v-1zM701 700l-457 -700h-170l457 700h170z
M751 54h-41v-55h-132v55h-165v80q53 52 53 146h137q0 -76 -44 -138h19l55 61h77v-61h41v-88z" />
    <glyph glyph-name="period" unicode="." horiz-adv-x="292" 
d="M24 196h244v-196h-244v196z" />
    <glyph glyph-name="comma" unicode="," horiz-adv-x="292" 
d="M24 -44q65 0 91 11q24 10 24 33h-115v196h244v-168q0 -91 -53 -126t-191 -35v89z" />
    <glyph glyph-name="colon" unicode=":" horiz-adv-x="304" 
d="M50 500h244v-196h-244v196zM50 196h244v-196h-244v196z" />
    <glyph glyph-name="semicolon" unicode=";" horiz-adv-x="304" 
d="M50 500h244v-196h-244v196zM50 -44q65 0 91 11q24 10 24 33h-115v196h244v-168q0 -91 -53 -126t-191 -35v89z" />
    <glyph glyph-name="ellipsis" unicode="&#x2026;" horiz-adv-x="862" 
d="M25 196h244v-196h-244v196zM319 196h244v-196h-244v196zM613 196h244v-196h-244v196z" />
    <glyph glyph-name="exclam" unicode="!" horiz-adv-x="374" 
d="M40 700h294l-42 -450h-210zM65 196h244v-196h-244v196z" />
    <glyph glyph-name="exclamdown" unicode="&#xa1;" horiz-adv-x="374" 
d="M309 700v-196h-244v196h244zM292 450l42 -450h-294l42 450h210z" />
    <glyph glyph-name="question" unicode="?" horiz-adv-x="827" 
d="M718 658q87 -56 87 -158v-4q0 -120 -152 -169l-28 -8l-28 -8q-35 -9 -48 -14q-48 -15 -48 -37v-10h-223v10q0 123 114 162l21 6l21 6q26 7 37 11q36 14 38 39q-3 42 -84 42q-94 0 -94 -70v-12h-296v12q0 264 396 264q192 0 287 -62zM268 196h243v-196h-243v196z" />
    <glyph glyph-name="questiondown" unicode="&#xbf;" horiz-adv-x="800" 
d="M561 516h-243v196h243v-196zM794 268v-12q0 -264 -396 -264q-192 0 -287 62q-87 56 -87 158v4q0 120 152 169l28 8l28 8q35 9 49 14q47 15 47 37v10h223v-10q0 -123 -114 -162l-21 -6l-21 -6q-26 -7 -37 -11q-36 -14 -38 -39q3 -42 84 -42q94 0 94 70v12h296z" />
    <glyph glyph-name="periodcentered" unicode="&#xb7;" horiz-adv-x="361" 
d="M81 250q-31 30 -31 100t31 100q30 30 99 30q70 0 100 -30q31 -30 31 -100t-31 -100q-30 -30 -100 -30q-69 0 -99 30z" />
    <glyph glyph-name="bullet" unicode="&#x2022;" horiz-adv-x="461" 
d="M377 164q44 44 44 146t-44 146q-45 44 -147 44q-101 0 -146 -44q-44 -44 -44 -146t44 -146q45 -45 146 -45q102 0 147 45zM368 344l-77 -58l31 -90l-13 -9l-79 55l-78 -55l-13 9l31 90l-77 55l5 17h94l29 89h17l30 -89h96z" />
    <glyph glyph-name="asterisk" unicode="*" horiz-adv-x="587" 
d="M224 466h-183l-11 30l149 105l-57 176l22 18l150 -109l149 109l24 -18l-59 -176l149 -105l-10 -30h-184l-56 -172h-28z" />
    <glyph glyph-name="numbersign" unicode="#" horiz-adv-x="1002" 
d="M805 395l-21 -100h138l-40 -194h-137l-20 -101h-230l21 101h-139l-21 -101h-223l21 101h-134l40 194h134l20 100h-134l40 194h134l23 111h223l-23 -111h143l23 111h223l-22 -111h138l-40 -194h-137zM579 395h-142l-20 -100h140z" />
    <glyph glyph-name="slash" unicode="/" horiz-adv-x="551" 
d="M325 700h216l-315 -700h-216z" />
    <glyph glyph-name="backslash" unicode="\" horiz-adv-x="551" 
d="M322 0l-315 700h216l315 -700h-216z" />
    <glyph glyph-name="parenleft" unicode="(" horiz-adv-x="374" 
d="M142 0q-113 165 -113 350t113 350h206q-192 -350 0 -700h-206z" />
    <glyph glyph-name="parenright" unicode=")" horiz-adv-x="385" 
d="M34 0q192 350 0 700h206q113 -165 113 -350t-113 -350h-206z" />
    <glyph glyph-name="braceleft" unicode="{" horiz-adv-x="390" 
d="M350 0q-150 0 -213 50q-61 48 -61 159v36q0 34 -11 51q-12 18 -45 31v53q33 13 45 31q11 17 11 50v50q0 101 64 145t210 44v-155q-73 0 -73 -64v-45q0 -53 -56 -80v-4q56 -21 56 -72v-61q0 -64 73 -64v-155z" />
    <glyph glyph-name="braceright" unicode="}" horiz-adv-x="390" 
d="M40 155q73 0 73 64v61q0 51 56 72v4q-56 27 -56 80v45q0 64 -73 64v155q146 0 210 -44t64 -145v-50q0 -33 12 -50q11 -18 44 -31v-53q-33 -13 -44 -31q-12 -17 -12 -51v-36q0 -111 -60 -159q-64 -50 -214 -50v155z" />
    <glyph glyph-name="bracketleft" unicode="[" horiz-adv-x="375" 
d="M241 530v-360h94v-170h-295v700h295v-170h-94z" />
    <glyph glyph-name="bracketright" unicode="]" horiz-adv-x="375" 
d="M335 0h-295v170h94v360h-94v170h295v-700z" />
    <glyph glyph-name="hyphen" unicode="-" horiz-adv-x="485" 
d="M50 428h385v-180h-385v180z" />
    <glyph glyph-name="endash" unicode="&#x2013;" horiz-adv-x="700" 
d="M50 428h600v-180h-600v180z" />
    <glyph glyph-name="emdash" unicode="&#x2014;" horiz-adv-x="1080" 
d="M50 428h980v-180h-980v180z" />
    <glyph glyph-name="underscore" unicode="_" horiz-adv-x="600" 
d="M50 0h500v-195h-500v195z" />
    <glyph glyph-name="quotesinglbase" unicode="&#x201a;" horiz-adv-x="272" 
d="M24 -44q65 0 91 11q24 10 24 33h-115v196h244v-168q0 -91 -53 -126t-191 -35v89z" />
    <glyph glyph-name="quotedblbase" unicode="&#x201e;" horiz-adv-x="578" 
d="M40 -44q65 0 91 11q24 10 24 33h-115v196h244v-168q0 -91 -53 -126t-191 -35v89zM334 -44q65 0 91 11q24 10 24 33h-115v196h244v-168q0 -91 -53 -126t-191 -35v89z" />
    <glyph glyph-name="quotedblleft" unicode="&#x201c;" horiz-adv-x="618" 
d="M284 744q-65 0 -91 -11q-24 -10 -24 -33h115v-196h-244v168q0 91 53 126t191 35v-89zM578 744q-65 0 -91 -11q-24 -10 -24 -33h115v-196h-244v168q0 91 53 126t191 35v-89z" />
    <glyph glyph-name="quotedblright" unicode="&#x201d;" horiz-adv-x="618" 
d="M40 460q65 0 91 11q24 10 24 33h-115v196h244v-168q0 -91 -53 -126t-191 -35v89zM334 460q65 0 91 11q24 10 24 33h-115v196h244v-168q0 -91 -53 -126t-191 -35v89z" />
    <glyph glyph-name="quoteleft" unicode="&#x2018;" horiz-adv-x="324" 
d="M284 744q-65 0 -91 -11q-24 -10 -24 -33h115v-196h-244v168q0 91 53 126t191 35v-89z" />
    <glyph glyph-name="quoteright" unicode="&#x2019;" horiz-adv-x="324" 
d="M40 460q65 0 91 11q24 10 24 33h-115v196h244v-168q0 -91 -53 -126t-191 -35v89z" />
    <glyph glyph-name="guillemotleft" unicode="&#xab;" horiz-adv-x="735" 
d="M255 347l152 -214h-224l-153 213v8l153 213h224zM563 347l152 -214h-224l-153 213v8l153 213h224z" />
    <glyph glyph-name="guillemotright" unicode="&#xbb;" horiz-adv-x="711" 
d="M373 346l-153 -213h-224l152 214l-152 220h224l153 -213v-8zM681 354v-8l-153 -213h-224l152 214l-152 220h224z" />
    <glyph glyph-name="guilsinglleft" unicode="&#x2039;" horiz-adv-x="427" 
d="M255 347l152 -214h-224l-153 213v8l153 213h224z" />
    <glyph glyph-name="guilsinglright" unicode="&#x203a;" horiz-adv-x="427" 
d="M397 354v-8l-153 -213h-224l152 214l-152 220h224z" />
    <glyph glyph-name="quotedbl" unicode="&#x22;" horiz-adv-x="510" 
d="M15 700h214l-20 -329h-174zM281 700h214l-20 -329h-174z" />
    <glyph glyph-name="quotesingle" unicode="'" horiz-adv-x="262" 
d="M24 700h214l-20 -329h-174z" />
    <glyph glyph-name="space" unicode=" " horiz-adv-x="300" 
 />
    <glyph glyph-name="glyph507" horiz-adv-x="923" 
d="M881 206v-2q0 -176 -282 -176h-39v-110h-226v110h-284v644h284v100h226v-100h41q248 0 248 -160v-3q0 -106 -101 -140q133 -35 133 -163zM340 522v-105h170q59 0 59 52v2q0 51 -59 51h-170zM589 235q0 51 -59 51h-190v-105h190q59 0 59 51v3z" />
    <glyph glyph-name="cent" unicode="&#xa2;" horiz-adv-x="901" 
d="M578 389v5q0 95 -122 93q-68 0 -96 -31t-28 -107v-5q0 -74 28 -105t96 -31q121 2 121 90v5h294v-5q0 -130 -76 -198q-75 -67 -232 -81v-101h-226v104q-162 19 -234 95q-73 76 -73 226v5q0 154 73 232q72 78 234 95v97h226v-96q158 -15 232 -82q76 -68 76 -200v-5h-293z
" />
    <glyph glyph-name="currency" unicode="&#xa4;" horiz-adv-x="792" 
d="M716 346q0 -61 -13 -104l65 -64l-160 -160l-78 79q-52 -11 -134 -11q-76 0 -133 12l-79 -80l-160 160l65 64q-13 43 -13 104v4q0 63 13 108l-65 64l160 160l78 -79q52 11 134 11q75 0 133 -11l79 79l160 -160l-65 -64q13 -45 13 -108v-4zM482 351q0 50 -18 70
q-19 21 -68 20q-49 0 -68 -20q-18 -20 -18 -70v-3q0 -50 18 -69q19 -21 68 -21q49 1 68 21q18 20 18 69v3z" />
    <glyph glyph-name="dollar" unicode="$" horiz-adv-x="847" 
d="M326 472q0 -33 78 -45q24 -4 79 -9l45 -4l47 -5q113 -14 170 -49q78 -48 78 -141v-4q0 -171 -280 -196v-101h-226v100q-152 11 -223 63q-70 52 -70 151v6h287v-6q0 -55 118 -55q101 0 101 38v6q0 33 -78 46q-24 4 -79 9l-45 5l-46 5q-114 15 -171 50q-78 47 -78 139v3
q0 173 284 196v98h226v-100q276 -31 276 -215v-7h-296v8q0 56 -107 56q-90 0 -90 -38v-4z" />
    <glyph glyph-name="Euro" unicode="&#x20ac;" horiz-adv-x="928" 
d="M598 427v2q0 37 -23 51t-85 14q-94 0 -118 -53h138v-185h-138q24 -52 117 -52q63 0 86 15q23 14 23 53v2h300v-2q0 -147 -96 -214q-98 -69 -317 -69q-183 0 -277 63q-95 64 -114 204h-64v185h63q19 141 114 205q92 63 276 65q219 1 319 -68q96 -67 96 -214v-2h-300z" />
    <glyph glyph-name="sterling" unicode="&#xa3;" horiz-adv-x="802" 
d="M518 427v2q0 36 -19 51q-18 14 -59 14q-81 0 -77 -53h97v-185h-98q-5 -29 -13 -52h429v-204h-728v184q20 34 27 72h-57v185h72q-24 124 72 199q93 73 259 73q184 0 270 -70q85 -69 85 -214v-2h-260z" />
    <glyph glyph-name="yen" unicode="&#xa5;" horiz-adv-x="903" 
d="M711 381h57v-185h-171v-196h-300v196h-162v185h52l-187 319h309l141 -288l145 288h308z" />
    <glyph glyph-name="plus" unicode="+" horiz-adv-x="586" 
d="M556 248h-175v-178h-176v179h-175v179h175v178h176v-178h175v-180z" />
    <glyph glyph-name="minus" unicode="&#x2212;" horiz-adv-x="586" 
d="M30 428h526v-180l-526 1v179z" />
    <glyph glyph-name="multiply" unicode="&#xd7;" horiz-adv-x="583" 
d="M25 198l140 140l-140 140l127 127l140 -140l140 140l126 -127l-140 -140l140 -140l-127 -127l-140 140l-140 -140z" />
    <glyph glyph-name="divide" unicode="&#xf7;" horiz-adv-x="586" 
d="M164 579q0 111 129 111t129 -111q0 -114 -129 -114t-129 114zM30 428h526v-180l-526 1v179zM164 102q0 111 129 111t129 -111q0 -114 -129 -114t-129 114z" />
    <glyph glyph-name="equal" unicode="=" horiz-adv-x="586" 
d="M30 568h526v-180l-526 1v179zM30 308h526v-180l-526 1v179z" />
    <glyph glyph-name="notequal" unicode="&#x2260;" horiz-adv-x="586" 
d="M514 569h42v-180h-131l-39 -80h170v-180h-259l-48 -96h-216l48 97h-51v179h140l40 81h-180v179h268l50 100h216z" />
    <glyph glyph-name="greater" unicode="&#x3e;" horiz-adv-x="566" 
d="M536 428v-180l-506 -165v179l317 76l-317 76v179z" />
    <glyph glyph-name="less" unicode="&#x3c;" horiz-adv-x="566" 
d="M536 414l-317 -76l317 -76v-179l-506 165v180l506 165v-179z" />
    <glyph glyph-name="greaterequal" unicode="&#x2265;" horiz-adv-x="586" 
d="M556 182v-170l-526 1v346l317 76l-317 76v179l506 -165v-180l-500 -163h520z" />
    <glyph glyph-name="lessequal" unicode="&#x2264;" horiz-adv-x="586" 
d="M556 511l-317 -76l317 -76v-346l-526 -1v170h520l-500 163v180l506 165v-179z" />
    <glyph glyph-name="plusminus" unicode="&#xb1;" horiz-adv-x="586" 
d="M381 338v-140h175v-180l-526 1v179h175v141h-175v179h175v158h176v-158h175v-180h-175z" />
    <glyph glyph-name="approxequal" unicode="&#x2248;" horiz-adv-x="586" 
d="M350 393l-28 5l-29 6q-75 15 -113 15q-82 0 -150 -30v179q68 30 150 30q37 0 113 -15q37 -7 56 -10q32 -5 57 -5q82 0 150 30v-179q-70 -31 -150 -31q-25 0 -56 5zM293 144q-37 7 -56 10q-32 5 -57 5q-82 0 -150 -30v179q68 30 150 30q25 0 56 -5l57 -10q75 -15 113 -15
q82 0 150 30v-179q-70 -31 -150 -31q-37 0 -113 16z" />
    <glyph glyph-name="asciitilde" unicode="~" horiz-adv-x="616" 
d="M60 425q64 40 135 40q25 0 56 -6l29 -7l28 -7q76 -20 113 -20q81 0 135 40v-165q-60 -40 -135 -40q-37 0 -113 20q-75 20 -113 20q-78 0 -135 -40v165z" />
    <glyph glyph-name="logicalnot" unicode="&#xac;" horiz-adv-x="586" 
d="M556 97h-175v151l-351 1v179h526v-331z" />
    <glyph glyph-name="asciicircum" unicode="^" horiz-adv-x="618" 
d="M371 417l-62 150l-62 -150h-187l123 283h253l122 -283h-187z" />
    <glyph glyph-name="percent" unicode="%" horiz-adv-x="1011" 
d="M80 375q-50 43 -50 143v3q0 101 50 146q50 43 163 43t163 -44t50 -146v-2q0 -101 -51 -145q-50 -43 -163 -42t-162 44zM650 700h170l-457 -700h-170zM285 473q11 12 11 46v1q0 35 -11 48q-11 12 -42 12t-42 -12t-11 -47v-2q0 -33 11 -45q11 -11 42 -12t42 11zM605 34
q-50 43 -50 143v3q0 101 50 146q50 43 163 43t163 -44t50 -146v-2q0 -101 -51 -145q-50 -43 -163 -42t-162 44zM810 132q11 12 11 46v1q0 35 -11 48q-11 12 -42 12t-42 -12t-11 -47v-2q0 -33 11 -45q11 -11 42 -12t42 11z" />
    <glyph glyph-name="perthousand" unicode="&#x2030;" horiz-adv-x="1471" 
d="M80 375q-50 43 -50 143v3q0 101 50 146q50 43 163 43t163 -44t50 -146v-2q0 -101 -51 -145q-50 -43 -163 -42t-162 44zM650 700h170l-457 -700h-170zM285 473q11 12 11 46v1q0 35 -11 48q-11 12 -42 12t-42 -12t-11 -47v-2q0 -33 11 -45q11 -11 42 -12t42 11zM605 34
q-50 43 -50 143v3q0 101 50 146q50 43 163 43t163 -44t50 -146v-2q0 -101 -51 -145q-50 -43 -163 -42t-162 44zM1065 34q-50 43 -50 143v3q0 101 50 146q50 43 163 43t163 -44t50 -146v-2q0 -101 -51 -145q-50 -43 -163 -42t-162 44zM810 132q11 12 11 46v1q0 35 -11 48
q-11 12 -42 12t-42 -12t-11 -47v-2q0 -33 11 -45q11 -11 42 -12t42 11zM1270 132q11 12 11 46v1q0 35 -11 48q-11 12 -42 12t-42 -12t-11 -47v-2q0 -33 11 -45q11 -11 42 -12t42 11z" />
    <glyph glyph-name="uniF8FF" unicode="&#xf8ff;" horiz-adv-x="1451" 
d="M709 540q-18 18 -18 43q0 26 18 44q17 18 43 18t44 -18t18 -44t-18 -43q-18 -18 -44 -18q-25 0 -43 18zM100 270q0 175 9 314h100q9 -139 10 -314h-119zM522 330q0 15 2 50t2 37h-22v79l119 30l1 -17h178q10 -64 10 -239h-118q0 92 3 147h-61l3 -65q4 -4 15 -4q14 0 18 5
v-74q-10 -15 -66 -15q-84 0 -84 66zM236 378q0 136 137 136q119 0 121 -117v-127h-83l-8 61q-13 -66 -75 -66q-92 0 -92 113zM834 270q0 175 10 239h80q6 -45 6 -76v2l1 3q0 5 2 11q4 15 11 27q22 38 67 38q41 0 58 -25q16 -24 18 -81l3 -138h-114q0 26 1 56t1 40
q0 26 -15 26q-18 0 -18 -26v-19l2 -21q1 -30 1 -56h-114zM1135 299q-29 32 -29 85q0 130 122 130q123 0 123 -130q0 -119 -124 -119q-60 0 -92 34zM390 375q0 26 -23 26t-23 -26q0 -30 23 -30t23 30zM1251 375q0 26 -23 26q-21 0 -21 -26q0 -30 21 -30q23 0 23 30zM302 -33
v83q20 -16 69 -16q54 0 55 28q-13 -11 -49 -11q-90 0 -90 83v13h-55l3 -65q4 -4 15 -4q14 0 18 5v-73q-10 -15 -67 -15q-82 0 -82 64q0 18 1 49q1 27 2 39h-18v80l117 29l-1 -17l177 -1v-119q0 -27 14 -27q17 0 17 27v119h104q10 -60 10 -147q0 -73 -35 -107t-114 -34
q-71 0 -91 17zM558 -44q0 171 10 282h78q7 -52 7 -76v2l1 3q1 5 3 11q4 15 12 27q22 38 64 38q80 0 80 -112q0 -136 -137 -136q1 -13 1 -39h-119zM829 112q0 131 126 131q54 0 85 -30q30 -30 30 -84q0 -25 -3 -37h-124q9 -18 49 -18q37 0 56 12v-75q-20 -16 -78 -16
q-141 0 -141 117zM978 109q3 27 -17 27q-23 0 -23 -27h40zM707 110q0 22 -20 22q-22 0 -22 -32q0 -15 5 -28q37 2 37 38zM1075 13q0 22 23 22q22 0 22 -22q0 -23 -22 -23q-23 0 -23 23zM1115 13q0 18 -17 18q-18 0 -18 -18t18 -18q17 0 17 18zM1088 25h11q10 0 10 -7t-7 -7
l6 -9h-6l-4 9h-5v-9h-5v23zM1099 15q5 0 5 4q0 1 -2 2h-9v-6h6z" />
    <glyph glyph-name="at" unicode="@" horiz-adv-x="916" 
d="M786 636q100 -77 100 -216v-5q0 -107 -73 -172q-67 -59 -163 -61h-136v32q-48 -41 -126 -41q-134 0 -134 104v2q0 112 183 112h65v13q0 35 -48 35t-48 -27v-4h-142v4q0 125 192 125q194 0 194 -150v-89q44 1 63 23q21 24 21 85v5q0 81 -47 128q-67 67 -229 66
q-166 -1 -229 -74q-47 -56 -47 -180v-4q0 -123 47 -175q62 -69 229 -69h192v-115h-192q-226 0 -328 88q-100 86 -100 272v2q0 188 100 278q104 93 328 92q219 -1 328 -84zM502 301v19h-76q-29 0 -29 -23v-1q0 -26 51 -26q54 0 54 31z" />
    <glyph glyph-name="ampersand" unicode="&#x26;" horiz-adv-x="950" 
d="M822 293v-65q0 -45 49 -45h29v-184h-226q-61 0 -97 30q-35 30 -35 83v181h-115q-83 0 -83 -52v-2q0 -24 18 -39q22 -18 67 -18h58v-182h-58q-209 0 -301 53q-88 51 -88 164v2q0 113 119 154q-114 38 -114 144v2q0 100 92 149q96 51 300 51q405 0 405 -241v-2h-296v2
q0 25 -22 40q-26 19 -79 19q-55 0 -80 -17q-21 -13 -21 -35v-2q0 -52 103 -52h453v-138h-78z" />
    <glyph glyph-name="paragraph" unicode="&#xb6;" horiz-adv-x="871" 
d="M380 240h-42q-157 0 -231 54q-77 55 -77 177q0 126 77 184q74 56 231 56h217v-579q0 -46 -21 -63q-22 -17 -81 -17h-73v188zM821 711v-601q0 -166 -85 -238q-86 -72 -283 -72h-73v165h73q104 0 148 34q45 33 45 111v601h175z" />
    <glyph glyph-name="section" unicode="&#xa7;" horiz-adv-x="859" 
d="M829 204q0 -84 -70 -130q50 -50 50 -135v-5q0 -113 -81 -165q-90 -58 -301 -58q-209 0 -303 57q-94 58 -94 185v7h287v-7q0 -61 118 -61q101 0 101 43v6q0 37 -79 51q-25 5 -80 11l-46 4l-46 6q-115 17 -173 56q-79 52 -79 154v4q0 80 72 131q-52 50 -52 135v4
q0 222 363 222q403 0 403 -246v-7h-296v8q0 63 -107 63q-90 0 -90 -42v-5q0 -37 79 -50q24 -5 80 -10l46 -4l47 -6q114 -16 172 -55q79 -52 79 -156v-5zM326 224q0 -31 45 -45q29 -10 109 -18q56 9 56 40v6q0 31 -46 46q-30 10 -113 19q-51 -8 -51 -43v-5z" />
    <glyph glyph-name="copyright" unicode="&#xa9;" horiz-adv-x="916" 
d="M130 80q-100 87 -100 268v2q0 371 428 370q428 1 428 -370v-2q0 -181 -100 -268q-104 -92 -328 -92t-328 92zM679 168q55 56 55 179v4q0 125 -55 184q-65 71 -221 70t-221 -70q-55 -59 -55 -184v-4q0 -123 55 -179q64 -65 221 -65t221 65zM308 222q-47 39 -47 130v2
q0 93 47 133q46 41 152 40q100 -1 146 -35q48 -35 48 -114v-3h-137v3q0 48 -57 48q-32 0 -45 -16t-13 -56v-2q0 -70 58 -70q57 0 57 46v3h137v-3q0 -78 -47 -114q-47 -35 -147 -33q-106 2 -152 41z" />
    <glyph glyph-name="registered" unicode="&#xae;" horiz-adv-x="916" 
d="M886 350v-2q0 -181 -100 -268q-104 -92 -328 -92t-328 92q-100 87 -100 268v2q0 371 428 370q428 1 428 -370zM734 351q0 125 -55 184q-65 71 -221 70t-221 -70q-55 -59 -55 -184v-4q0 -123 55 -179q64 -65 221 -65t221 65q55 56 55 179v4zM660 404q0 -80 -73 -105
l85 -116h-163l-66 104h-28v-104h-142v342h231q156 0 156 -119v-2zM415 375h64q37 0 37 30v1q0 31 -37 31h-64v-62z" />
    <glyph glyph-name="trademark" unicode="&#x2122;" horiz-adv-x="883" 
d="M376 603h-106v-183h-145v183h-116v97h367v-97zM862 700v-280h-136v36q0 43 4 87h-1l-66 -109h-58l-66 109h-1q4 -35 4 -87v-36h-136v280h145l71 -116l3 -4l3 -5q5 -5 5 -6h2q0 1 5 6l3 5l3 4l70 116h146z" />
    <glyph glyph-name="degree" unicode="&#xb0;" horiz-adv-x="482" 
d="M35 540v1q0 179 206 179t206 -179v-1q0 -174 -206 -174t-206 174zM314 541v1q0 68 -73 68t-73 -68v-1q0 -65 73 -65t73 65z" />
    <glyph glyph-name="bar" unicode="|" horiz-adv-x="360" 
d="M70 750h220v-850h-220v850z" />
    <glyph glyph-name="brokenbar" unicode="&#xa6;" horiz-adv-x="360" 
d="M70 750h220v-350h-220v350zM70 250h220v-350h-220v350z" />
    <glyph glyph-name="dagger" unicode="&#x2020;" horiz-adv-x="556" 
d="M506 329l-150 45l42 -374h-240l42 374l-150 -45v241l142 -42l-34 172h240l-34 -172l142 42v-241z" />
    <glyph glyph-name="daggerdbl" unicode="&#x2021;" horiz-adv-x="556" 
d="M506 379l-144 43l36 -72l-36 -72l144 43v-241l-132 39l24 -119h-240l24 119l-132 -39v241l144 -43l-36 72l36 72l-144 -43v241l132 -39l-24 119h240l-24 -119l132 39v-241z" />
    <glyph glyph-name="uni0308" unicode="&#x308;" 
d="M-617 950h251v-194h-251v194zM-311 950h251v-194h-251v194z" />
    <glyph glyph-name="uni0307" unicode="&#x307;" 
d="M-361 771q-37 27 -37 84q0 111 169 111t169 -111q0 -57 -36 -84q-41 -30 -133 -30t-132 30z" />
    <glyph glyph-name="gravecomb" unicode="&#x300;" 
d="M-50 884v-128h-370v214z" />
    <glyph glyph-name="acutecomb" unicode="&#x301;" 
d="M-50 756h-370v128l370 86v-214z" />
    <glyph glyph-name="uni030B" unicode="&#x30b;" 
d="M-576 960h251l-80 -204h-221zM-270 960h251l-80 -204h-221z" />
    <glyph glyph-name="glyph549" 
d="M-290 459q60 0 84 12q21 10 21 35h-105v194h230v-186q0 -155 -230 -155v100z" />
    <glyph glyph-name="uni0302" unicode="&#x302;" 
d="M-260 756l-63 66l-63 -66h-200l128 194h270l128 -194h-200z" />
    <glyph glyph-name="uni030C" unicode="&#x30c;" 
d="M-60 950l-128 -194h-270l-128 194h200l63 -66l63 66h200z" />
    <glyph glyph-name="uni0306" unicode="&#x306;" 
d="M-528 929v21h169v-16q0 -21 16 -34q18 -15 49 -15q65 0 65 49v16h169v-21q0 -183 -233 -183q-235 0 -235 183z" />
    <glyph glyph-name="uni030A" unicode="&#x30a;" 
d="M-387 655q-47 48 -47 132q0 82 47 129q49 50 140 50t140 -50q47 -47 47 -129q0 -84 -47 -132q-49 -50 -140 -50t-140 50zM-193 787q0 52 -54 52q-56 0 -56 -52q0 -55 56 -55q54 0 54 55z" />
    <glyph glyph-name="tildecomb" unicode="&#x303;" 
d="M-556 923q64 40 135 40q38 0 113 -20l28 -7l29 -7q31 -6 56 -6q81 0 135 40v-165q-60 -40 -135 -40q-25 0 -56 6l-29 7l-28 7q-75 20 -113 20q-78 0 -135 -40v165z" />
    <glyph glyph-name="uni0304" unicode="&#x304;" 
d="M-536 936h476v-161h-476v161z" />
    <glyph glyph-name="uni0312" unicode="&#x312;" 
d="M-60 977q-60 0 -84 -11q-21 -11 -21 -36h105v-174h-230v166q0 155 230 155v-100z" />
    <glyph glyph-name="uni0326" unicode="&#x326;" 
d="M-270 -231q95 0 95 27h-95v144h220v-136q0 -124 -220 -124v89z" />
    <glyph glyph-name="uni0327" unicode="&#x327;" 
d="M-358 -206h75q36 0 36 29q0 28 -36 28h-65v75l62 94h151l-53 -75q128 0 128 -122q0 -123 -154 -123h-144v94z" />
    <glyph glyph-name="uni0328" unicode="&#x328;" 
d="M-167 -300q-76 0 -120 40q-40 36 -42 95q-2 58 35 114q39 61 110 97l123 -46q-83 -22 -90 -99q-4 -31 11 -52q15 -23 42 -23h12v-126h-81z" />
    <glyph glyph-name="uni0335" unicode="&#x335;" 
d="M-1 432v-150h-500v150h500z" />
    <glyph glyph-name="uni0336" unicode="&#x336;" 
d="M-60 422v-130h-950v130h950z" />
    <glyph glyph-name="uni0337" unicode="&#x337;" 
d="M-775 119l540 454h175l-540 -454h-175z" />
    <glyph glyph-name="uni0338" unicode="&#x338;" 
d="M-775 119l540 454h175l-540 -454h-175z" />
    <glyph glyph-name="acute" unicode="&#xb4;" horiz-adv-x="470" 
d="M420 756h-370v128l370 86v-214z" />
    <glyph glyph-name="breve" unicode="&#x2d8;" horiz-adv-x="588" 
d="M60 929v21h169v-16q0 -21 16 -34q18 -15 49 -15q65 0 65 49v16h169v-21q0 -183 -233 -183q-235 0 -235 183z" />
    <glyph glyph-name="caron" unicode="&#x2c7;" horiz-adv-x="646" 
d="M586 950l-128 -194h-270l-128 194h200l63 -66l63 66h200z" />
    <glyph glyph-name="cedilla" unicode="&#xb8;" horiz-adv-x="418" 
d="M60 -206h75q36 0 36 29q0 28 -36 28h-65v75l62 94h151l-53 -75q128 0 128 -122q0 -123 -154 -123h-144v94z" />
    <glyph glyph-name="circumflex" unicode="&#x2c6;" horiz-adv-x="646" 
d="M386 756l-63 66l-63 -66h-200l128 194h270l128 -194h-200z" />
    <glyph glyph-name="dieresis" unicode="&#xa8;" horiz-adv-x="677" 
d="M60 950h251v-194h-251v194zM366 950h251v-194h-251v194z" />
    <glyph glyph-name="dotaccent" unicode="&#x2d9;" horiz-adv-x="458" 
d="M97 771q-37 27 -37 84q0 111 169 111t169 -111q0 -57 -36 -84q-41 -30 -133 -30t-132 30z" />
    <glyph glyph-name="grave" unicode="`" horiz-adv-x="470" 
d="M420 884v-128h-370v214z" />
    <glyph glyph-name="hungarumlaut" unicode="&#x2dd;" horiz-adv-x="677" 
d="M101 960h251l-80 -204h-221zM407 960h251l-80 -204h-221z" />
    <glyph glyph-name="macron" unicode="&#xaf;" horiz-adv-x="596" 
d="M60 936h476v-161h-476v161z" />
    <glyph glyph-name="ogonek" unicode="&#x2db;" horiz-adv-x="388" 
d="M221 -300q-76 0 -120 40q-40 36 -42 95q-2 58 35 114q39 61 110 97l123 -46q-83 -22 -90 -99q-4 -31 11 -52q15 -23 42 -23h12v-126h-81z" />
    <glyph glyph-name="ring" unicode="&#x2da;" horiz-adv-x="494" 
d="M107 655q-47 48 -47 132q0 82 47 129q49 50 140 50t140 -50q47 -47 47 -129q0 -84 -47 -132q-49 -50 -140 -50t-140 50zM301 787q0 52 -54 52q-56 0 -56 -52q0 -55 56 -55q54 0 54 55z" />
    <glyph glyph-name="tilde" unicode="&#x2dc;" horiz-adv-x="616" 
d="M60 923q64 40 135 40q25 0 56 -6l29 -7l28 -7q76 -20 113 -20q81 0 135 40v-165q-60 -40 -135 -40q-37 0 -113 20l-28 7l-29 7q-31 6 -56 6q-78 0 -135 -40v165z" />
    <glyph glyph-name="glyph577" horiz-adv-x="350" 
d="M60 459q60 0 84 12q21 10 21 35h-105v194h230v-186q0 -155 -230 -155v100z" />
    <glyph glyph-name="uni0308.aalt" 
d="M-617 950h251v-194h-251v194zM-311 950h251v-194h-251v194z" />
    <glyph glyph-name="uni0307.aalt" 
d="M-361 771q-37 27 -37 84q0 111 169 111t169 -111q0 -57 -36 -84q-41 -30 -133 -30t-132 30z" />
    <glyph glyph-name="gravecomb.aalt" 
d="M-50 884v-128h-370v214z" />
    <glyph glyph-name="acutecomb.aalt" 
d="M-50 756h-370v128l370 86v-214z" />
    <glyph glyph-name="uni030B.aalt" 
d="M-576 960h251l-80 -204h-221zM-270 960h251l-80 -204h-221z" />
    <glyph glyph-name="uni0302.aalt" 
d="M-260 756l-63 66l-63 -66h-200l128 194h270l128 -194h-200z" />
    <glyph glyph-name="uni030C.aalt" 
d="M-60 950l-128 -194h-270l-128 194h200l63 -66l63 66h200z" />
    <glyph glyph-name="uni0306.aalt" 
d="M-528 929v21h169v-16q0 -21 16 -34q18 -15 49 -15q65 0 65 49v16h169v-21q0 -183 -233 -183q-235 0 -235 183z" />
    <glyph glyph-name="uni030A.aalt" 
d="M-387 655q-47 48 -47 132q0 82 47 129q49 50 140 50t140 -50q47 -47 47 -129q0 -84 -47 -132q-49 -50 -140 -50t-140 50zM-193 787q0 52 -54 52q-56 0 -56 -52q0 -55 56 -55q54 0 54 55z" />
    <glyph glyph-name="tildecomb.aalt" 
d="M-556 923q64 40 135 40q38 0 113 -20l28 -7l29 -7q31 -6 56 -6q81 0 135 40v-165q-60 -40 -135 -40q-25 0 -56 6l-29 7l-28 7q-75 20 -113 20q-78 0 -135 -40v165z" />
    <glyph glyph-name="uni0304.aalt" 
d="M-536 936h476v-161h-476v161z" />
    <glyph glyph-name="uni0337.aalt" 
d="M-775 119l540 454h175l-540 -454h-175z" />
    <glyph glyph-name="uni0338.aalt" 
d="M-775 119l540 454h175l-540 -454h-175z" />
    <glyph glyph-name="acute.aalt" horiz-adv-x="470" 
d="M420 756h-370v128l370 86v-214z" />
    <glyph glyph-name="breve.aalt" horiz-adv-x="588" 
d="M60 929v21h169v-16q0 -21 16 -34q18 -15 49 -15q65 0 65 49v16h169v-21q0 -183 -233 -183q-235 0 -235 183z" />
    <glyph glyph-name="caron.aalt" horiz-adv-x="646" 
d="M586 950l-128 -194h-270l-128 194h200l63 -66l63 66h200z" />
    <glyph glyph-name="circumflex.aalt" horiz-adv-x="646" 
d="M386 756l-63 66l-63 -66h-200l128 194h270l128 -194h-200z" />
    <glyph glyph-name="dieresis.aalt" horiz-adv-x="677" 
d="M60 950h251v-194h-251v194zM366 950h251v-194h-251v194z" />
    <glyph glyph-name="dotaccent.aalt" horiz-adv-x="458" 
d="M97 771q-37 27 -37 84q0 111 169 111t169 -111q0 -57 -36 -84q-41 -30 -133 -30t-132 30z" />
    <glyph glyph-name="grave.aalt" horiz-adv-x="470" 
d="M420 884v-128h-370v214z" />
    <glyph glyph-name="hungarumlaut.aalt" horiz-adv-x="677" 
d="M101 960h251l-80 -204h-221zM407 960h251l-80 -204h-221z" />
    <glyph glyph-name="macron.aalt" horiz-adv-x="596" 
d="M60 936h476v-161h-476v161z" />
    <glyph glyph-name="ring.aalt" horiz-adv-x="494" 
d="M107 655q-47 48 -47 132q0 82 47 129q49 50 140 50t140 -50q47 -47 47 -129q0 -84 -47 -132q-49 -50 -140 -50t-140 50zM301 787q0 52 -54 52q-56 0 -56 -52q0 -55 56 -55q54 0 54 55z" />
    <glyph glyph-name="tilde.aalt" horiz-adv-x="616" 
d="M60 923q64 40 135 40q25 0 56 -6l29 -7l28 -7q76 -20 113 -20q81 0 135 40v-165q-60 -40 -135 -40q-37 0 -113 20l-28 7l-29 7q-31 6 -56 6q-78 0 -135 -40v165z" />
    <glyph glyph-name="glyph602" horiz-adv-x="476" 
d="M348 150q0 -34 20 -83q21 -52 48 -79q-38 0 -69 12q-37 14 -49 41q0 -24 -21 -40l-9 -7l-10 -7q-12 -9 -20 -17q-8 8 -20 17l-10 7l-9 7q-21 16 -21 40q-12 -27 -49 -41q-31 -12 -69 -12q27 27 48 79q20 49 20 83v210q0 82 77 99v53q-75 14 -75 95q0 56 31 80
q30 24 102 24h37v-32h-38q-45 0 -61 -15q-17 -16 -17 -57q0 -43 21 -57q1 55 20 78q18 24 59 24q42 0 60 -16t18 -54q0 -40 -24 -57q-23 -18 -78 -18v-47q88 -13 88 -100v-210zM265 603q-5 -17 -5 -64q27 0 38 9q10 9 10 34q0 38 -24 38q-14 0 -19 -17z" />
    <glyph glyph-name="glyph603" horiz-adv-x="1052" 
d="M836 551q83 0 120 -54q36 -55 36 -181q0 -175 -73 -251t-243 -76q-179 0 -366 121h-250v409h250q0 73 87 129q99 63 266 63q173 0 173 -105h-130q-65 0 -93 -26t-28 -86v-29q-57 -30 -115 0v-55q58 -30 115 0v-222q0 -58 28 -83t93 -25v50q-38 0 -52 12t-14 46v306
q0 33 14 45t52 12h130zM281 315l38 69h-42l-23 -43l-24 43h-42l-23 -43l-23 43h-43l38 -69l-38 -69h43l23 42l23 -42h42l24 42l23 -42h42zM210 345l16 -30l-16 -31l-18 31z" />
    <glyph glyph-name="glyph604" horiz-adv-x="1052" 
d="M992 519v-409h-250q-187 -121 -366 -121q-170 0 -243 76t-73 251q0 126 36 181q37 54 120 54h130q38 0 52 -12t14 -45v-306q0 -34 -14 -46t-52 -12v-50q65 0 93 25t28 83v222q58 -30 115 0v55q-57 -30 -115 0v29q0 60 -28 86t-93 26h-130q0 105 173 105q167 0 267 -63
q86 -56 86 -129h250zM915 315l38 69h-43l-23 -43l-23 43h-42l-24 -43l-23 43h-42l38 -69l-38 -69h42l23 42l24 -42h42l23 42l23 -42h43zM842 345l18 -30l-18 -31l-16 31z" />
    <glyph glyph-name="glyph605" horiz-adv-x="842" 
d="M677 777q105 0 105 -173q0 -167 -63 -266q-56 -87 -129 -87v-250h-409v250q-121 187 -121 366q0 170 76 243t251 73q126 0 181 -36q54 -37 54 -120v-130q0 -38 -12 -52t-45 -14h-306q-34 0 -46 14t-12 52h-50q0 -65 25 -93t83 -28h222q-30 -57 0 -115h55q-30 58 0 115h29
q60 0 86 28t26 93v130zM455 260l-69 -38l-69 38v-42l42 -23l-42 -24v-42l42 -23l-42 -23v-43l69 38l69 -38v43l-43 23l43 23v42l-43 24l43 23v42zM386 167l30 -16l-30 -18l-31 18z" />
    <glyph glyph-name="glyph606" horiz-adv-x="842" 
d="M590 450q73 0 129 -86q63 -100 63 -267q0 -173 -105 -173v130q0 65 -26 93t-86 28h-29q-30 58 0 115h-55q-30 -57 0 -115h-222q-58 0 -83 -28t-25 -93h50q0 38 12 52t46 14h306q33 0 45 -14t12 -52v-130q0 -83 -54 -120q-55 -36 -181 -36q-175 0 -251 73t-76 243
q0 179 121 366v250h409v-250zM455 441v42l-43 23l43 24v42l-43 23l43 23v43l-69 -38l-69 38v-43l42 -23l-42 -23v-42l42 -24l-42 -23v-42l69 38zM416 550l-30 -16l-31 16l31 18z" />
    <glyph glyph-name="glyph607" horiz-adv-x="1156" 
d="M345 665l-159 272l78 99l130 -335zM281 586l-195 157l61 126l177 -225zM984 290q-22 -129 -122 -214q-101 -87 -234 -87q-149 0 -255 106t-106 255t106 255t255 106q133 0 234 -87q100 -85 122 -214l10 -1h10q10 -1 17 -2q-20 139 -124 235q-105 97 -246 104v-17
q-23 -15 -47 0v81q24 15 47 0v-24q160 -8 277 -119q117 -110 134 -269q34 -14 34 -48q0 -57 -112 -60zM860 118q96 96 96 232t-96 232t-232 96t-232 -96t-96 -232t96 -232t232 -96t232 96zM71 664l193 -109l-16 -44l-188 36zM839 561q87 -87 87 -211t-87 -211t-211 -87
t-211 87t-87 211t87 211t211 87t211 -87zM689 289q16 17 16 61t-16 61q-17 16 -61 16t-61 -16q-16 -17 -16 -61t16 -61q17 -16 61 -16t61 16z" />
    <glyph glyph-name="glyph608" horiz-adv-x="674" 
d="M336 242l-156 -113l-25 18l60 184l-155 112l10 31h191l59 181h33l59 -181h193l9 -30l-156 -113l60 -185l-24 -18z" />
    <glyph glyph-name="glyph609" horiz-adv-x="871" 
d="M327 368l35 108l-91 66l6 18h112l35 107h19l35 -107h114l5 -18l-92 -66l35 -109l-14 -10l-93 67l-91 -67zM116 110l35 108l-91 66l6 18h112l35 107h19l35 -107h114l5 -18l-92 -66l35 -109l-14 -10l-93 67l-91 -67zM541 110l35 108l-91 66l6 18h112l35 107h19l35 -107h114
l5 -18l-92 -66l35 -109l-14 -10l-93 67l-91 -67z" />
    <glyph glyph-name="glyph610" horiz-adv-x="807" 
d="M107 446l30 92l-77 56l5 15h95l29 91h17l29 -91h97l4 -15l-78 -56l30 -93l-12 -8l-79 57l-77 -57zM518 446l30 92l-77 56l5 15h95l30 91h16l29 -91h97l4 -15l-78 -56l30 -93l-12 -8l-79 57l-77 -57zM313 229l30 91l-77 56l5 16h95l30 91h16l30 -91h96l5 -16l-78 -56
l29 -92l-12 -9l-79 57l-77 -57zM107 9l30 92l-77 56l5 15h95l29 91h17l29 -91h97l4 -15l-78 -56l30 -93l-12 -8l-79 57l-77 -57zM518 9l30 92l-77 56l5 15h95l30 91h16l29 -91h97l4 -15l-78 -56l30 -93l-12 -8l-79 57l-77 -57z" />
    <glyph glyph-name="glyph611" horiz-adv-x="682" 
d="M557 158q65 65 65 216t-65 216t-216 65t-216 -65t-65 -216t65 -216t216 -65t216 65zM533 421l-108 -79l42 -128l-17 -12l-110 79l-108 -79l-17 13l41 127l-107 78l7 22h132l41 125h23l41 -125h134z" />
    <glyph glyph-name="glyph612" horiz-adv-x="655" 
d="M589 350l-5 -27l-5 -27q-6 -32 -12 -58q-17 -66 -42 -113q-34 -64 -83 -96q-40 -28 -92 -34l-11 -1l-11 -1h-1l-11 1l-11 1q-53 6 -93 34q-50 33 -83 96q-25 47 -41 113q-7 26 -13 58q-4 21 -9 54q-25 160 48 258q34 48 92 76q56 27 121 27q141 0 214 -103
q74 -103 48 -258zM534 406q0 73 -60 143q-66 77 -148 77t-144 -69q-61 -67 -61 -151l51 -122l14 -107l32 -39v46h16v-66l34 -42l18 7v101h15v-94l25 10l26 -11v97h16v-103l16 -7l43 53v55h16v-35l23 28l14 107zM306 387l-42 -79q-24 -13 -52 -1l4 -23h-4l-7 26q-10 5 -23 29
q-13 23 -13 35v18q0 9 1 15q3 15 18 15v21h3l5 -21q47 -11 90 -48zM457 422l6 21h3v-21q15 0 18 -15q1 -6 1 -15v-18q0 -12 -13 -35q-13 -24 -23 -29l-7 -26h-4l4 23q-28 -12 -52 1l-42 79l20 -13q43 37 89 48zM346 309l6 -9l6 -9q19 -32 10 -54q-9 -21 -41 -21
q-31 0 -40 23q-10 23 10 52l6 9l7 9q8 10 17 9q10 1 19 -9z" />
    <glyph glyph-name="glyph613" horiz-adv-x="570" 
d="M218 302h-133l-25 18l154 380h287l9 -30l-159 -236h140l9 -30l-381 -404h-33z" />
    <glyph glyph-name="uni0410" unicode="&#x410;" horiz-adv-x="895" 
d="M567 94h-237l-31 -94h-299l296 700h303l296 -700h-299zM515 265l-31 100q-9 27 -17 55q-9 33 -14 56h-3q-12 -54 -31 -111l-33 -100h129z" />
    <glyph glyph-name="uni0411" unicode="&#x411;" horiz-adv-x="881" 
d="M340 179h136q73 0 73 64v3q0 62 -73 62h-136v-129zM773 700v-196h-433v-17h196q67 0 147 -19q165 -47 165 -220v-4q0 -124 -79 -184q-79 -59 -244 -59h-185v-1h-290v700h723z" />
    <glyph glyph-name="uni0412" unicode="&#x412;" horiz-adv-x="899" 
d="M881 194v-3q0 -191 -282 -191h-549v700h551q248 0 248 -174v-3q0 -117 -101 -152q133 -39 133 -177zM340 537v-114h170q59 0 59 56v3q0 55 -59 55h-170zM589 225q0 55 -59 55h-190v-114h190q59 0 59 56v3z" />
    <glyph glyph-name="uni0413" unicode="&#x413;" horiz-adv-x="723" 
d="M350 496v-496h-300v700h663v-204h-363z" />
    <glyph glyph-name="uni0414" unicode="&#x414;" horiz-adv-x="1030" 
d="M561 149v347h-96v-347h96zM165 149v551h696v-551h117v-299h-300v95h-325v-95h-300v299h112z" />
    <glyph glyph-name="uni0415" unicode="&#x415;" horiz-adv-x="781" 
d="M753 174v-174h-703v700h697v-174h-397v-89h369v-174h-369v-89h403z" />
    <glyph glyph-name="uni0416" unicode="&#x416;" horiz-adv-x="1462" 
d="M894 453l226 247h325l-287 -297l294 -403h-333l-170 256l-55 -54v-202h-300v202l-55 54l-170 -256h-333l294 403l-287 297h325l226 -247v245h300v-245z" />
    <glyph glyph-name="uni0417" unicode="&#x417;" horiz-adv-x="844" 
d="M30 232v2h304v-2q0 -69 87 -69q95 0 95 61v2q0 57 -93 57h-110v138h110q93 0 93 57v2q0 57 -91 57t-91 -69v-2h-296v2q0 251 395 251q199 0 291 -53q91 -52 91 -162v-2q0 -55 -27 -87q-26 -32 -87 -52q65 -22 92 -58t27 -101v-2q0 -115 -92 -167q-93 -54 -299 -54
q-399 0 -399 251z" />
    <glyph glyph-name="uni0418" unicode="&#x418;" horiz-adv-x="925" 
d="M875 0h-295v144q0 37 4 99q4 70 9 106h-3l-264 -349h-276v700h295v-144q0 -37 -3 -99q-5 -70 -10 -106h3l264 349h276v-700z" />
    <glyph glyph-name="uni0419" unicode="&#x419;" horiz-adv-x="925" 
d="M875 0h-295v144q0 37 4 99q4 70 9 106h-3l-264 -349h-276v700h295v-144q0 -37 -3 -99q-5 -70 -10 -106h3l264 349h276v-700zM230 950h169v-16q0 -21 16 -34q18 -15 49 -15q65 0 65 49v16h169v-21q0 -183 -233 -183q-235 0 -235 183v21z" />
    <glyph glyph-name="uni041A" unicode="&#x41a;" horiz-adv-x="918" 
d="M405 256l-55 -54v-202h-300v698h300v-245l226 247h325l-287 -297l294 -403h-333z" />
    <glyph glyph-name="uni041B" unicode="&#x41b;" horiz-adv-x="878" 
d="M287 700h300l291 -700h-294l-111 365q-2 7 -8 26l-8 29q-11 35 -15 56h-3q-5 -22 -14 -56q-7 -23 -17 -55l-109 -365h-299z" />
    <glyph glyph-name="uni041C" unicode="&#x41c;" horiz-adv-x="1053" 
d="M50 700h301l149 -302q6 -12 15 -33q9 -22 10 -30h3q2 8 11 30q8 22 13 33l149 302h302v-700h-280v152q0 121 10 182h-1l-145 -294h-121l-145 294h-2q11 -67 11 -182v-152h-280v700z" />
    <glyph glyph-name="uni041D" unicode="&#x41d;" horiz-adv-x="930" 
d="M880 700v-700h-300v255h-230v-255h-300v700h300v-245h230v245h300z" />
    <glyph glyph-name="uni041E" unicode="&#x41e;" horiz-adv-x="956" 
d="M133 66q-103 83 -103 279v5q0 200 103 285q103 86 345 85q243 -1 346 -86q102 -84 102 -284v-5q0 -197 -102 -281q-104 -86 -346 -84q-243 2 -345 86zM593 230q31 33 31 116v5q0 85 -31 119q-32 36 -115 35t-115 -35q-31 -34 -31 -119v-5q0 -84 31 -117q32 -35 115 -34
t115 35z" />
    <glyph glyph-name="uni041F" unicode="&#x41f;" horiz-adv-x="802" 
d="M350 496v-496h-300v700h696v-700h-300v496h-96z" />
    <glyph glyph-name="uni0420" unicode="&#x420;" horiz-adv-x="872" 
d="M525 699q167 0 244 -62q79 -63 79 -201v-4q0 -134 -79 -197q-78 -62 -244 -62h-185v-173h-290v700h290v-1h185zM549 437q0 64 -73 64h-136v-129h136q73 0 73 62v3z" />
    <glyph glyph-name="uni0421" unicode="&#x421;" horiz-adv-x="901" 
d="M130 66q-100 84 -100 279v5q0 199 100 285q99 86 326 85q214 -1 313 -74q102 -76 102 -245v-5h-293v5q0 106 -122 104q-68 -1 -96 -35q-28 -35 -28 -119v-5q0 -83 28 -117q29 -35 96 -34q121 2 121 100v5h294v-5q0 -167 -102 -243q-100 -74 -313 -72q-228 2 -326 86z" />
    <glyph glyph-name="uni0422" unicode="&#x422;" horiz-adv-x="803" 
d="M783 496h-222v-496h-300v496h-241v204h763v-204z" />
    <glyph glyph-name="uni0423" unicode="&#x423;" horiz-adv-x="924" 
d="M874 700v-362q0 -358 -490 -358q-173 0 -277 9v214l172 2q180 2 241 37q55 32 54 122q-86 -97 -240 -96q-149 1 -216 68q-68 68 -68 222v142h300v-87q0 -75 27 -107q26 -30 86 -31q111 -2 111 111v114h300z" />
    <glyph glyph-name="uni0424" unicode="&#x424;" horiz-adv-x="1177" 
d="M850 351q0 64 -73 64h-46v-129h46q73 0 73 62v3zM321 350q0 -64 73 -64h46v129h-46q-73 0 -73 -62v-3zM730 614h1v-1h95q167 0 244 -62q79 -63 79 -201v-4q0 -134 -79 -197q-78 -62 -244 -62h-95v-87h-290v87h-1v1h-95q-167 0 -244 62q-79 63 -79 201v4q0 134 79 197
q78 62 244 62h95v87h290v-87z" />
    <glyph glyph-name="uni0425" unicode="&#x425;" horiz-adv-x="930" 
d="M608 0l-141 198l-145 -198h-322l262 349l-257 351h323l137 -191l137 191h323l-258 -342l263 -358h-322z" />
    <glyph glyph-name="uni0426" unicode="&#x426;" horiz-adv-x="914" 
d="M563 0h-513v700h300v-496h96v496h300v-494h117v-300h-300v94z" />
    <glyph glyph-name="uni0427" unicode="&#x427;" horiz-adv-x="869" 
d="M520 409q-76 2 -137 37q-55 32 -54 122v133h-300v-159q0 -358 490 -358h28v-184h300v700h-300v-291h-27z" />
    <glyph glyph-name="uni0428" unicode="&#x428;" horiz-adv-x="1210" 
d="M747 700v-496h96v496h300v-700h-1093v700h300v-496h96v496h301z" />
    <glyph glyph-name="uni0429" unicode="&#x429;" horiz-adv-x="1259" 
d="M936 0h-886v700h300v-496h96v496h301v-496h96v496h300v-494h92v-299h-299v93z" />
    <glyph glyph-name="uni042A" unicode="&#x42a;" horiz-adv-x="955" 
d="M632 266q0 62 -73 62h-136v-129h136q73 0 73 64v3zM423 700v-173h185q166 0 244 -62q79 -63 79 -197v-4q0 -138 -79 -201q-77 -62 -244 -62h-185v-1h-290v520h-105v180h395z" />
    <glyph glyph-name="uni042B" unicode="&#x42b;" horiz-adv-x="1215" 
d="M340 1v-1h-290v700h290v-173h185q166 0 244 -62q79 -63 79 -197v-4q0 -138 -79 -201q-77 -62 -244 -62h-185zM549 266q0 62 -73 62h-136v-129h136q73 0 73 64v3zM1171 0h-300v700h300v-700z" />
    <glyph glyph-name="uni042C" unicode="&#x42c;" horiz-adv-x="872" 
d="M340 1v-1h-290v700h290v-173h185q166 0 244 -62q79 -63 79 -197v-4q0 -138 -79 -201q-77 -62 -244 -62h-185zM549 266q0 62 -73 62h-136v-129h136q73 0 73 64v3z" />
    <glyph glyph-name="uni042D" unicode="&#x42d;" horiz-adv-x="901" 
d="M396 248v180h165q-7 26 -20 42q-28 34 -96 35q-122 2 -122 -104v-5h-293v5q0 169 102 245q99 73 313 74q227 1 326 -85q100 -86 100 -285v-5q0 -195 -100 -279q-98 -84 -326 -86q-213 -2 -313 72q-102 76 -102 243v5h294v-5q0 -98 121 -100q67 -1 96 34q7 8 12 19h-157z
" />
    <glyph glyph-name="uni042E" unicode="&#x42e;" horiz-adv-x="1331" 
d="M968 230q31 33 31 116v5q0 85 -31 119q-32 36 -115 35t-115 -35q-31 -34 -31 -119v-5q0 -84 31 -117q32 -35 115 -34t115 35zM413 455q21 119 95 180q103 86 345 85q243 -1 346 -86q102 -84 102 -284v-5q0 -197 -102 -281q-104 -86 -346 -84q-243 2 -345 86
q-78 62 -97 189h-64v-255h-300v700h300v-245h66z" />
    <glyph glyph-name="uni042F" unicode="&#x42f;" horiz-adv-x="881" 
d="M383 0h-333l175 237q-152 50 -152 216v4q0 124 79 184q79 59 244 59h475v-700h-290v214h-59zM581 522h-136q-73 0 -73 -64v-3q0 -62 73 -62h136v129z" />
    <glyph glyph-name="uni0430" unicode="&#x430;" horiz-adv-x="883" 
d="M736 648q99 -72 99 -225v-423h-275v61q-101 -80 -256 -80q-131 0 -201 54q-71 53 -71 155v5q0 113 84 168q91 60 290 60h129v34q0 69 -98 69t-98 -69v-2h-288v2q0 262 391 262q198 0 294 -71zM500 190q35 20 35 52v39h-153q-62 0 -62 -52v-1q0 -57 97 -57q50 0 83 19z
" />
    <glyph glyph-name="uni0431" unicode="&#x431;" horiz-adv-x="881" 
d="M340 179h136q73 0 73 64v3q0 62 -73 62h-136v-129zM773 700v-196h-433v-17h196q67 0 147 -19q165 -47 165 -220v-4q0 -124 -79 -184q-79 -59 -244 -59h-185v-1h-290v700h723z" />
    <glyph glyph-name="uni0432" unicode="&#x432;" horiz-adv-x="881" 
d="M863 194v-3q0 -191 -276 -191h-538v700h540q243 0 243 -174v-3q0 -117 -99 -152q130 -39 130 -177zM333 537v-114h167q58 0 58 56v3q0 55 -58 55h-167zM577 225q0 55 -58 55h-186v-114h186q58 0 58 56v3z" />
    <glyph glyph-name="uni0433" unicode="&#x433;" horiz-adv-x="723" 
d="M350 496v-496h-300v700h663v-204h-363z" />
    <glyph glyph-name="uni0434" unicode="&#x434;" horiz-adv-x="1030" 
d="M561 149v347h-96v-347h96zM165 149v551h696v-551h117v-299h-300v95h-325v-95h-300v299h112z" />
    <glyph glyph-name="uni0435" unicode="&#x435;" horiz-adv-x="913" 
d="M883 421v-114h-550q6 -68 37 -95q32 -28 102 -27q53 1 85 20t32 50v5h294v-5q0 -279 -421 -275q-226 2 -328 86q-104 86 -104 279v5q0 194 101 281q102 90 331 89q421 -1 421 -299zM598 419v2q0 96 -126 94q-63 -2 -94 -22q-31 -22 -41 -74h261z" />
    <glyph glyph-name="uni0436" unicode="&#x436;" horiz-adv-x="1437" 
d="M872 464q119 12 168 66q48 53 48 168v2h300v-2q0 -262 -182 -362q11 -74 57 -107q47 -33 144 -33v-207q-58 -9 -107 -9q-142 0 -238 81q-91 76 -117 203q-44 -4 -73 -5v-259h-300v259q-29 1 -73 5q-26 -127 -117 -203q-96 -81 -238 -81q-49 0 -107 9v207q97 0 144 33
q46 33 57 107q-182 100 -182 362v2h300v-2q0 -115 48 -168q49 -54 168 -66v236h300v-236z" />
    <glyph glyph-name="uni0437" unicode="&#x437;" horiz-adv-x="844" 
d="M30 232v2h304v-2q0 -69 87 -69q95 0 95 61v2q0 57 -93 57h-110v138h110q93 0 93 57v2q0 57 -91 57t-91 -69v-2h-296v2q0 251 395 251q199 0 291 -53q91 -52 91 -162v-2q0 -55 -27 -87q-26 -32 -87 -52q65 -22 92 -58t27 -101v-2q0 -115 -92 -167q-93 -54 -299 -54
q-399 0 -399 251z" />
    <glyph glyph-name="uni0438" unicode="&#x438;" horiz-adv-x="925" 
d="M875 0h-295v144q0 37 4 99q4 70 9 106h-3l-264 -349h-276v700h295v-144q0 -37 -3 -99q-5 -70 -10 -106h3l264 349h276v-700z" />
    <glyph glyph-name="uni0439" unicode="&#x439;" horiz-adv-x="925" 
d="M875 0h-295v144q0 37 4 99q4 70 9 106h-3l-264 -349h-276v700h295v-144q0 -37 -3 -99q-5 -70 -10 -106h3l264 349h276v-700zM230 950h169v-16q0 -21 16 -34q18 -15 49 -15q65 0 65 49v16h169v-21q0 -183 -233 -183q-235 0 -235 183v21z" />
    <glyph glyph-name="uni043A" unicode="&#x43a;" horiz-adv-x="915" 
d="M741 229q47 -33 144 -33v-207q-58 -9 -107 -9q-142 0 -238 81q-91 76 -117 203q-44 -4 -73 -5v-259h-300v700h300v-236q119 12 168 66q48 53 48 168v2h300v-2q0 -262 -182 -362q11 -74 57 -107z" />
    <glyph glyph-name="uni043B" unicode="&#x43b;" horiz-adv-x="878" 
d="M287 700h300l291 -700h-294l-111 365q-2 7 -8 26l-8 29q-11 35 -15 56h-3q-5 -22 -14 -56q-7 -23 -17 -55l-109 -365h-299z" />
    <glyph glyph-name="uni043C" unicode="&#x43c;" horiz-adv-x="1053" 
d="M50 700h301l149 -302q6 -12 15 -33q9 -22 10 -30h3q2 8 11 30q8 22 13 33l149 302h302v-700h-280v152q0 121 10 182h-1l-145 -294h-121l-145 294h-2q11 -67 11 -182v-152h-280v700z" />
    <glyph glyph-name="uni043D" unicode="&#x43d;" horiz-adv-x="930" 
d="M880 700v-700h-300v255h-230v-255h-300v700h300v-245h230v245h300z" />
    <glyph glyph-name="uni043E" unicode="&#x43e;" horiz-adv-x="956" 
d="M133 66q-103 83 -103 279v5q0 200 103 285q103 86 345 85q243 -1 346 -86q102 -84 102 -284v-5q0 -197 -102 -281q-104 -86 -346 -84q-243 2 -345 86zM593 230q31 33 31 116v5q0 85 -31 119q-32 36 -115 35t-115 -35q-31 -34 -31 -119v-5q0 -84 31 -117q32 -35 115 -34
t115 35z" />
    <glyph glyph-name="uni043F" unicode="&#x43f;" horiz-adv-x="802" 
d="M350 496v-496h-300v700h696v-700h-300v496h-96z" />
    <glyph glyph-name="uni0440" unicode="&#x440;" horiz-adv-x="872" 
d="M525 699q167 0 244 -62q79 -63 79 -201v-4q0 -134 -79 -197q-78 -62 -244 -62h-185v-173h-290v700h290v-1h185zM549 437q0 64 -73 64h-136v-129h136q73 0 73 62v3z" />
    <glyph glyph-name="uni0441" unicode="&#x441;" horiz-adv-x="901" 
d="M130 66q-100 84 -100 279v5q0 199 100 285q99 86 326 85q214 -1 313 -74q102 -76 102 -245v-5h-293v5q0 106 -122 104q-68 -1 -96 -35q-28 -35 -28 -119v-5q0 -83 28 -117q29 -35 96 -34q121 2 121 100v5h294v-5q0 -167 -102 -243q-100 -74 -313 -72q-228 2 -326 86z" />
    <glyph glyph-name="uni0442" unicode="&#x442;" horiz-adv-x="803" 
d="M783 496h-222v-496h-300v496h-241v204h763v-204z" />
    <glyph glyph-name="uni0443" unicode="&#x443;" horiz-adv-x="924" 
d="M874 700v-362q0 -358 -490 -358q-173 0 -277 9v214l172 2q180 2 241 37q55 32 54 122q-86 -97 -240 -96q-149 1 -216 68q-68 68 -68 222v142h300v-87q0 -75 27 -107q26 -30 86 -31q111 -2 111 111v114h300z" />
    <glyph glyph-name="uni0444" unicode="&#x444;" horiz-adv-x="1177" 
d="M850 351q0 64 -73 64h-46v-129h46q73 0 73 62v3zM321 350q0 -64 73 -64h46v129h-46q-73 0 -73 -62v-3zM730 614h1v-1h95q167 0 244 -62q79 -63 79 -201v-4q0 -134 -79 -197q-78 -62 -244 -62h-95v-87h-290v87h-1v1h-95q-167 0 -244 62q-79 63 -79 201v4q0 134 79 197
q78 62 244 62h95v87h290v-87z" />
    <glyph glyph-name="uni0445" unicode="&#x445;" horiz-adv-x="926" 
d="M876 121v-121h-302v130q0 118 -109 121h-2q-111 1 -111 -121v-130h-302v121q0 146 119 241q-109 94 -109 234v105h302v-124q0 -113 101 -111h1q100 2 100 111v124h302v-105q0 -139 -107 -234q117 -96 117 -241z" />
    <glyph glyph-name="uni0446" unicode="&#x446;" horiz-adv-x="914" 
d="M563 0h-513v700h300v-496h96v496h300v-494h117v-300h-300v94z" />
    <glyph glyph-name="uni0447" unicode="&#x447;" horiz-adv-x="869" 
d="M520 409q-76 2 -137 37q-55 32 -54 122v133h-300v-159q0 -358 490 -358h28v-184h300v700h-300v-291h-27z" />
    <glyph glyph-name="uni0448" unicode="&#x448;" horiz-adv-x="1210" 
d="M747 700v-496h96v496h300v-700h-1093v700h300v-496h96v496h301z" />
    <glyph glyph-name="uni0449" unicode="&#x449;" horiz-adv-x="1259" 
d="M936 0h-886v700h300v-496h96v496h301v-496h96v496h300v-494h92v-299h-299v93z" />
    <glyph glyph-name="uni044A" unicode="&#x44a;" horiz-adv-x="955" 
d="M632 266q0 62 -73 62h-136v-129h136q73 0 73 64v3zM423 700v-173h185q166 0 244 -62q79 -63 79 -197v-4q0 -138 -79 -201q-77 -62 -244 -62h-185v-1h-290v520h-105v180h395z" />
    <glyph glyph-name="uni044B" unicode="&#x44b;" horiz-adv-x="1215" 
d="M340 1v-1h-290v700h290v-173h185q166 0 244 -62q79 -63 79 -197v-4q0 -138 -79 -201q-77 -62 -244 -62h-185zM549 266q0 62 -73 62h-136v-129h136q73 0 73 64v3zM1171 0h-300v700h300v-700z" />
    <glyph glyph-name="uni044C" unicode="&#x44c;" horiz-adv-x="872" 
d="M340 1v-1h-290v700h290v-173h185q166 0 244 -62q79 -63 79 -197v-4q0 -138 -79 -201q-77 -62 -244 -62h-185zM549 266q0 62 -73 62h-136v-129h136q73 0 73 64v3z" />
    <glyph glyph-name="uni044D" unicode="&#x44d;" horiz-adv-x="901" 
d="M396 248v180h165q-7 26 -20 42q-28 34 -96 35q-122 2 -122 -104v-5h-293v5q0 169 102 245q99 73 313 74q227 1 326 -85q100 -86 100 -285v-5q0 -195 -100 -279q-98 -84 -326 -86q-213 -2 -313 72q-102 76 -102 243v5h294v-5q0 -98 121 -100q67 -1 96 34q7 8 12 19h-157z
" />
    <glyph glyph-name="uni044E" unicode="&#x44e;" horiz-adv-x="1331" 
d="M968 230q31 33 31 116v5q0 85 -31 119q-32 36 -115 35t-115 -35q-31 -34 -31 -119v-5q0 -84 31 -117q32 -35 115 -34t115 35zM413 455q21 119 95 180q103 86 345 85q243 -1 346 -86q102 -84 102 -284v-5q0 -197 -102 -281q-104 -86 -346 -84q-243 2 -345 86
q-78 62 -97 189h-64v-255h-300v700h300v-245h66z" />
    <glyph glyph-name="uni044F" unicode="&#x44f;" horiz-adv-x="881" 
d="M225 232q-165 47 -165 220v4q0 124 79 184q79 59 244 59h185v1h290v-700h-290v213h-64q-34 -103 -122 -166q-95 -67 -225 -67q-48 0 -107 9v207q125 0 175 36zM568 521h-136q-73 0 -73 -64v-3q0 -62 73 -62h136v129z" />
    <glyph glyph-name="uni0401" unicode="&#x401;" horiz-adv-x="781" 
d="M368 756h-251v194h251v-194zM674 756h-251v194h251v-194zM753 174v-174h-703v700h697v-174h-397v-89h369v-174h-369v-89h403z" />
    <glyph glyph-name="uni0451" unicode="&#x451;" horiz-adv-x="913" 
d="M429 756h-251v194h251v-194zM735 756h-251v194h251v-194zM883 421v-114h-550q6 -68 37 -95q32 -28 102 -27q53 1 85 20t32 50v5h294v-5q0 -279 -421 -275q-226 2 -328 86q-104 86 -104 279v5q0 194 101 281q102 90 331 89q421 -1 421 -299zM598 419v2q0 96 -126 94
q-63 -2 -94 -22q-31 -22 -41 -74h261z" />
    </font>
</defs>
</svg>
